<?xml version="1.0" standalone="no"?>
<!DOCTYPE svg PUBLIC "-//W3C//DTD SVG 1.1//EN" "http://www.w3.org/Graphics/SVG/1.1/DTD/svg11.dtd" >
<svg xmlns="http://www.w3.org/2000/svg">
  <metadata>Created by iconfont</metadata>
  <defs>
  <font id="iconfont" horiz-adv-x="1024">
    <font-face
      font-family="iconfont"
      font-weight="400"
      font-stretch="normal"
      units-per-em="1024"
      ascent="896"
      descent="-128"
    />
      <missing-glyph />
      
      <glyph glyph-name="kefudianhua" unicode="&#59269;" d="M750.464 767.552H275.712A148.864 148.864 0 0 1 128.256 617.6v-325.376a148.864 148.864 0 0 1 147.456-149.952h118.208l72.736-118.08a55.168 55.168 0 0 1 17.28-17.568 54.4 54.4 0 0 1 75.52 17.568l72.736 118.08h118.208a148.864 148.864 0 0 1 147.456 149.952V617.6a148.8 148.8 0 0 1-147.392 149.952z m-428.16-387.456a63.296 63.296 0 0 0-62.752 63.84 63.296 63.296 0 0 0 62.752 63.84 63.296 63.296 0 0 0 62.816-63.84 63.296 63.296 0 0 0-62.784-63.84z m188.8 0a63.296 63.296 0 0 0-62.752 63.84 63.296 63.296 0 0 0 62.752 63.84 63.296 63.296 0 0 0 62.816-63.84 63.296 63.296 0 0 0-62.656-63.84z m188.8 0a63.296 63.296 0 0 0-62.752 63.84 63.296 63.296 0 0 0 62.752 63.84 63.296 63.296 0 0 0 62.816-63.84 63.392 63.392 0 0 0-62.528-63.84z"  horiz-adv-x="1024" />
      
      <glyph glyph-name="xitongwangzhi" unicode="&#59270;" d="M320.288 414.688h173.376v158.656h-153.6a763.392 763.392 0 0 1-19.776-158.656z m20.8-197.824h152.544v162.784h-173.344a765.536 765.536 0 0 1 20.8-162.784z m8.288 391.52h144.224V819.872c-12.576-0.704-25.152-1.984-37.632-3.744a574.496 574.496 0 0 1-106.464-207.712z m-44.32-35.2H128.288a427.488 427.488 0 0 1-40.352-158.656h197.248a767.456 767.456 0 0 0 20 158.816z m383.712 0h-163.68v-158.656h182.4a768.48 768.48 0 0 1-18.528 158.656z m201.088 35.2a431.68 431.68 0 0 1-272.608 200.704 586.944 586.944 0 0 0 97.696-200.704z m-313.6 208.288a430.048 430.048 0 0 1-51.2 3.808v-212.064h154.88a580.768 580.768 0 0 1-103.648 208.256zM285.312 379.648H87.488a429.696 429.696 0 0 1 35.776-162.784h182.912a768.416 768.416 0 0 0-20.864 162.784z m-144.8-197.824a432 432 0 0 1 289.888-214.4 564.224 564.224 0 0 0-114.784 214.4z m273.696 626.048a432 432 0 0 1-267.232-199.456h167.392a581.152 581.152 0 0 0 99.84 199.456z m174.496-843.808a431.52 431.52 0 0 1 307.84 217.792h-186.24a552.416 552.416 0 0 0-121.6-217.824z m153.984 450.624h206.432a429.152 429.152 0 0 1-40.352 158.656h-184.736a768.48 768.48 0 0 0 18.656-158.656z m-217.6-232.864v-223.392c8 0 16 0.48 23.936 1.024a548.384 548.384 0 0 1 126.016 222.368z m-53.792-220.8c7.424-0.832 14.912-1.472 22.4-1.856v222.656h-143.04a557.28 557.28 0 0 1 120.768-220.928z m235.808 418.752h-182.016v-162.784h160a758.016 758.016 0 0 1 22.4 162.784z m112.736 0h-77.536a761.056 761.056 0 0 0-22.208-162.784h193.664a429.696 429.696 0 0 1 35.776 162.784z"  horiz-adv-x="1024" />
      
      <glyph glyph-name="jiantou" unicode="&#59268;" d="M712.032321-22.094231a63.991401 63.991401 0 0 0-25.596561 7.231028l-652.20036 342.098031a63.991401 63.991401 0 0 0 0 113.328771l652.328343 342.162022a63.991401 63.991401 0 0 0 25.59656 7.29502 511.931209 511.931209 0 1 0 0-812.114872zM1023.862418 383.931209m-191.974203 0a191.974203 191.974203 0 1 1 383.948407 0 191.974203 191.974203 0 1 1-383.948407 0Z"  horiz-adv-x="1536" />
      
      <glyph glyph-name="jishuxianjin" unicode="&#59261;" d="M284.525714 156.489143h454.985143V611.474286H284.525714z m303.323429-75.830857h-151.661714v-75.830857h-75.830858v75.830857h-113.755428a37.924571 37.924571 0 0 0-37.906286 37.906285v113.737143H132.864v75.849143h75.830857v151.661714H132.864v75.830858h75.830857v113.755428a37.924571 37.924571 0 0 0 37.906286 37.906286h113.737143V763.136h75.830857v-75.830857h151.661714V763.136h75.830857v-75.830857h113.737143a37.924571 37.924571 0 0 0 37.906286-37.906286v-113.737143h75.867428v-75.830857h-75.830857v-151.661714h75.830857v-75.830857h-75.830857v-113.737143a37.924571 37.924571 0 0 0-37.906285-37.906286h-113.737143v-75.867428h-75.849143v75.830857zM360.356571 535.643429h303.323429v-303.323429H360.356571z"  horiz-adv-x="1024" />
      
      <glyph glyph-name="gaoxiao" unicode="&#59262;" d="M506.346667-6.890667a28.629333 28.629333 0 0 0-20.629334 8.533334 29.141333 29.141333 0 0 0-5.674666 32.64 234.496 234.496 0 0 1-309.994667 309.973333 28.821333 28.821333 0 0 0-38.4 38.4 300.48 300.48 0 0 0 59.733333 86.549333 290.688 290.688 0 0 0 206.933334 85.824h12.8a416 416 0 0 0 206.208 181.610667 421.034667 421.034667 0 0 0 156.416 30.378667 400.085333 400.085333 0 0 0 96.661333-11.349334 28.352 28.352 0 0 0 21.333333-21.333333 413.610667 413.610667 0 0 0-110.933333-389.44 408.96 408.96 0 0 0-91.029333-68.8 292.650667 292.650667 0 0 0-172.032-279.466667 17.856 17.856 0 0 0-11.392-3.52z m-241.066667 429.866667a289.301333 289.301333 0 0 0 206.933333-85.824 294.4 294.4 0 0 0 81.728-156.8 282.858667 282.858667 0 0 0 1.472-91.498667c2.837333 2.133333 4.949333 4.992 7.786667 7.061334a234.496 234.496 0 0 1 67.541333 192.32 28.096 28.096 0 0 0 16.384 29.056 348.117333 348.117333 0 0 1 93.12 67.413333A354.944 354.944 0 0 1 839.04 701.781333a337.066667 337.066667 0 0 1-65.386667 5.674667 354.773333 354.773333 0 0 1-252.373333-104.298667 375.146667 375.146667 0 0 1-67.541333-92.906666 29.184 29.184 0 0 0-29.141334-15.616c-8.533333 0.682667-17.749333 1.429333-26.176 1.429333a230.805333 230.805333 0 0 1-165.653333-68.8 67.797333 67.797333 0 0 1-7.061333-7.829333 179.2 179.2 0 0 0 39.765333 3.52z m-39.04-387.946667a258.346667 258.346667 0 0 0-27.050667 1.429334 30.08 30.08 0 0 0-24.853333 24.810666c-0.725333 4.266667-14.933333 111.445333 58.304 185.130667 34.816 34.773333 64 50.432 93.12 50.432a103.68 103.68 0 0 0 71.765333-36.842667 105.450667 105.450667 0 0 0 36.970667-68.842666c1.429333-29.866667-14.933333-60.288-50.517333-96.490667a223.722667 223.722667 0 0 0-157.866667-59.584z m99.541333 203.541334c-7.061333 0-22.784-4.266667-51.904-33.322667a147.477333 147.477333 0 0 1-40.533333-87.957333 156.181333 156.181333 0 0 1-2.133333-24.128 167.338667 167.338667 0 0 1 112.298666 42.666666c29.866667 29.866667 34.133333 46.08 33.450667 52.501334a58.666667 58.666667 0 0 1-19.861333 29.866666c-14.933333 15.616-23.466667 20.586667-31.338667 20.586667z m367.509334 241.066666a88 88 0 1 0 88.149333 87.957334 88.042667 88.042667 0 0 0-88.106667-87.957334z m0 117.034667a29.205333 29.205333 0 0 1-29.098667-29.098667 29.738667 29.738667 0 0 1 29.141333-29.098666 29.269333 29.269333 0 0 1 29.141334 29.098666 28.8 28.8 0 0 1-28.501334 29.056h-0.597333z"  horiz-adv-x="1024" />
      
      <glyph glyph-name="fuwulinian" unicode="&#59263;" d="M305.170286 768.457143a177.609143 177.609143 0 0 1 0-355.2h177.664v177.536a177.627429 177.627429 0 0 1-177.627429 177.664z m587.629714-177.664a177.645714 177.645714 0 1 1-355.291429 0v-177.572572h177.664a177.590857 177.590857 0 0 1 177.627429 177.572572zM127.542857 180.864a177.627429 177.627429 0 1 1 355.254857 0v177.590857h-177.627428a177.590857 177.590857 0 0 1-177.627429-177.590857z m587.538286 177.572571H537.417143v-177.572571a177.645714 177.645714 0 1 1 177.828571 177.572571z"  horiz-adv-x="1024" />
      
      <glyph glyph-name="gongsidizhi" unicode="&#59264;" d="M853.351784 457.340541a341.545514 341.545514 0 1 1-682.675892 0c0-6.199351 0.608865-12.149622 0.885622-18.210595a88.396108 88.396108 0 0 1-0.885622-8.966919c0-217.475459 315.087568-463.788973 315.087567-463.788973a43.699892 43.699892 0 0 1 52.583784 0c26.291892 20.396973 315.087568 246.313514 315.087568 463.788973a88.396108 88.396108 0 0 1-0.885622 8.966919c0.304432 6.060973 0.885622 12.038919 0.885622 18.210595z m-341.324108-135.887568a135.970595 135.970595 0 1 0 131.293405 135.887568 133.645838 133.645838 0 0 0-131.293405-135.887568z"  horiz-adv-x="1024" />
      
      <glyph glyph-name="zhuanye" unicode="&#59265;" d="M776.96 810.666667H247.04A80.533333 80.533333 0 0 1 170.666667 726.698667v-685.397334A80.533333 80.533333 0 0 1 247.04-42.666667h529.92A80.533333 80.533333 0 0 1 853.333333 41.301333V726.698667A80.533333 80.533333 0 0 1 776.96 810.666667zM494.08 454.229333l-61.013333 55.936a29.12 29.12 0 0 1-43.690667-4.266666 36.885333 36.885333 0 0 1-3.328-5.333334l-52.352-47.957333V742.4h160.384zM247.04 742.4h24.533333v-356.053333a39.530667 39.530667 0 0 1 0.298667-4.522667 36.437333 36.437333 0 0 1 7.082667-23.765333 29.994667 29.994667 0 0 1 23.850666-12.245334 29.205333 29.205333 0 0 1 19.84 7.893334l92.117334 84.352 90.24-82.645334a29.290667 29.290667 0 0 1 19.84-7.893333 29.866667 29.866667 0 0 1 23.850666 12.288 36.117333 36.117333 0 0 1 7.125334 23.722667 39.616 39.616 0 0 1 0.298666 4.522666V742.4H776.96a15.296 15.296 0 0 0 14.336-15.744v-590.933333H232.704v590.933333a15.296 15.296 0 0 0 14.336 15.744z m529.92-716.8H247.04a15.296 15.296 0 0 0-14.336 15.744V67.626667h558.592v-26.325334a15.296 15.296 0 0 0-14.336-15.701333z"  horiz-adv-x="1024" />
      
      <glyph glyph-name="zhuanyetuandui" unicode="&#59266;" d="M938.715429 187.940571c0-41.892571-17.024-50.304-82.285715-50.304-17.024 162.084571-99.236571 240.292571-184.32 279.424a232.996571 232.996571 0 0 1 5.668572 265.435429c65.188571 19.547429 133.284571-25.124571 150.308571-95.085714a134.857143 134.857143 0 0 0-70.912-153.6 248.832 248.832 0 0 0 181.540572-245.869715z m-348.891429 215.131429c104.923429-22.308571 226.907429-94.976 226.907429-304.512 0-55.899429-70.912-55.899429-300.635429-55.899429-232.576 0-300.635429 0-300.635429 55.899429 0 206.756571 121.947429 282.203429 226.852572 304.512a177.115429 177.115429 0 0 0-70.875429 231.936 153.142857 153.142857 0 0 0 215.552 69.851429 175.305143 175.305143 0 0 0 65.188572-229.12 159.890286 159.890286 0 0 0-62.372572-72.667429z m-235.392 13.988571c-85.083429-39.131429-167.332571-120.155429-184.356571-279.424-65.243429 0-82.285714 8.411429-82.285715 50.304a238.244571 238.244571 0 0 0 178.651429 245.888 133.961143 133.961143 0 0 0-62.372572 173.220572 121.069714 121.069714 0 0 0 144.64 72.612571 228.662857 228.662857 0 0 1 5.723429-262.601143z"  horiz-adv-x="1024" />
      
      <glyph glyph-name="chuangxin" unicode="&#59267;" d="M377.877333 12.8h274.432v-64.64H377.877333zM515.114667 802.325333a336.341333 336.341333 0 0 1-168.149334-627.605333v-150.058667h336.256V174.72a336.341333 336.341333 0 0 1-168.106666 627.605333z m137.130666-569.429333l-45.717333-26.325333v-124.565334h-182.890667v124.565334l-45.674666 26.410666-6.4 3.84a274.410667 274.410667 0 1 0 280.725333-3.84zM521.472 503.445333l-81.066667 81.066667-64.725333-64.618667 93.674667-93.674666V212.48h91.498666v200.96l106.453334 106.453333-64.704 64.682667z"  horiz-adv-x="1024" />
      
      <glyph glyph-name="zhengneng" unicode="&#59259;" d="M484.736 770.005333h44.8v-134.4h-44.8z m357.674667-78.144l-89.6-89.6-31.616 31.765334 89.6 89.6z m-549.824-57.28l-31.765334-31.722666-89.6 89.6 31.722667 31.722666z m483.584-178.453333h112.106666v-44.8h-112.085333z m-650.176-0.021333h112.106666v-44.8H125.994667z m201.792-313.898667l38.122666 381.141333h281.365334l39.210666-381.141333z m493.248 0h-67.264l-40.341334 408.064a45.056 45.056 0 0 1-44.8 40.362667H345.728a45.056 45.056 0 0 1-44.8-40.362667l-40.533333-408.042667H193.237333v-67.264H125.994667v-67.242666h762.282666v67.242666h-67.242666v67.264zM560.96 478.549333l27.989333-291.498666h45.994667l-29.184 291.498666z"  horiz-adv-x="1024" />
      
      <glyph glyph-name="fugaiquanguo" unicode="&#59260;" d="M503.588571 458.020571l0.164572 0.164572a13.970286 13.970286 0 0 0-0.384 2.084571z m163.163429-178.176h-0.128z m4.187429-0.512c-1.024 0.164571-3.291429-0.128-4.187429 0.512-0.548571-1.92 0.292571-2.651429 4.187429-0.512zM512 810.660571a424.813714 424.813714 0 1 1 424.832-424.795428A424.832 424.832 0 0 1 512 810.660571z m271.36-165.924571a59.483429 59.483429 0 0 1-36.571429-8.612571 47.542857 47.542857 0 0 0-13.952-9.307429c-5.485714-1.499429-11.227429-0.164571-16.548571-2.011429-19.328-6.528-16.256-47.872-41.691429-41.636571-11.940571 2.944-20.352 17.060571-26.368 26.276571-5.339429 8.100571-14.976 14.811429-8.448 24.96-2.980571-0.768-6.144 0.128-9.051428-0.420571 4.059429 8.923429 17.700571 8.155429 20.004571 12.8 5.632 11.483429-15.616 12.672-21.632 14.244571 7.314286 7.716571 10.971429-2.596571 18.084572-0.859428 6.875429 1.700571-3.657143 10.752-7.771429 11.776-1.444571 0.384-25.6-6.692571-11.684571 5.851428q-25.929143 16.585143-51.876572 33.115429c-2.944-12.288 23.003429-19.236571 31.488-23.552-1.316571-5.083429-9.142857-12.452571-15.232-10.331429-5.668571 2.048-3.364571 11.483429-11.940571 10.532572-6.144-14.244571 12.928-10.112 14.72-18.816 2.011429-9.984-7.204571-5.76-10.752-5.595429-0.859429 0-7.460571 6.912-7.844572 1.700572-0.420571-6.144 10.587429-3.748571 11.355429-9.947429a44.269714 44.269714 0 0 0-29.732571 10.971429 47.433143 47.433143 0 0 1-33.316572 7.314285 63.817143 63.817143 0 0 1 14.427429 6.144 64.841143 64.841143 0 0 1 10.788571 11.300572c2.304 7.643429-0.128 7.076571-7.460571 12.068571a73.344 73.344 0 0 1-22.272 13.988572c-28.544 5.723429-8.795429-25.764571-30.464-30.08h1.115428-1.243428 0.128c-4.992 0.164571-14.427429 1.371429-17.627429-1.28-2.304-1.828571-2.468571-9.344-5.028571-12.032-4.516571-4.827429-11.300571-5.796571-16.731429-9.307429a74.715429 74.715429 0 0 1-20.004571-18.048c-11.428571-21.851429 25.764571-28.635429 39.844571-35.035428 6.4-2.907429 24.996571-6.820571 28.452572-11.648 4.644571-6.491429-4.004571-12.544 5.723428-17.115429a11.995429 11.995429 0 0 1 12.16 1.243429c4.352 4.900571-1.828571 6.016-2.779428 11.648-2.048 10.971429 1.28 6.564571 6.784 10.624 11.136 8.228571 8.612571 8.740571 4.608 21.851428-1.828571 6.107429-8.868571 23.168-2.724572 27.684572 8.064 5.888 25.252571-3.2 31.451429-3.968 7.204571-0.859429 11.300571-10.843429 15.232-14.939429 2.596571-2.688 7.314286-8.448 11.776-7.808 7.314286 0.987429 4.224 7.314286 8.411428 10.203429 11.227429 7.808 14.208-2.779429 18.688-13.348572a45.714286 45.714286 0 0 1 15.707429-20.114286c3.456-2.944 18.724571-13.568 17.28-20.114285-0.987429-4.388571-18.395429-10.971429-23.076572-12.544-17.024-5.376-48.987429 8.832-52.443428-18.176 6.619429 2.468571 25.435429 17.828571 31.085714 10.532571 2.596571-3.291429-2.048-8.100571-0.932571-11.392 3.2-9.856 10.788571-6.4 18.779428-4.827428a13.037714 13.037714 0 0 0-1.700571-0.896c10.88 5.595429 9.728 4.443429 14.628571 13.476571a64.932571 64.932571 0 0 0 6.363429 12.251429c7.899429 7.314286 9.142857 2.267429 13.988571-3.328 1.28-1.499429 13.403429-18.907429 9.142857-18.048a50.742857 50.742857 0 0 1-39.259428-5.248 107.465143 107.465143 0 0 0-21.12-13.403429c-1.828571-0.676571-16.164571-2.048-14.500572 0.384 2.468571 3.547429 10.971429 5.888 14.244572 9.728-9.252571 3.803429-16.987429-4.608-24.228572-9.563429-7.716571-3.657143-9.508571-10.459429-16.091428-16.457142-2.907429-2.596571-8.32-3.035429-11.136-6.491429s-3.072-8.539429-5.668572-11.684571c-1.828571-2.212571-6.436571-0.859429-8.356571-4.187429-2.468571-4.352 2.267429-8.411429 1.243429-11.52-1.828571-5.723429-12.8-10.532571-16.896-14.628571l1.664 1.627428a91.428571 91.428571 0 0 1-12.8-12.672 121.069714 121.069714 0 0 0 4.864-28.123428c-4.315429-12.928-12.8 7.003429-16.164572 12.16-11.776 17.700571-35.236571 5.851429-51.2 4.388571a35.675429 35.675429 0 0 1-27.940571-50.139429 24.704 24.704 0 0 1 27.794285-11.721142c10.459429 2.139429 13.568 16.731429 23.424 16.987428 18.048 0.475429 0.384-17.700571-1.188571-24.356571-1.408-6.180571 2.267429-6.747429 8.612571-8.283429 4.699429-1.115429 11.355429 2.011429 15.451429-0.676571 2.56-1.664 2.432-10.971429 5.924571-8.027429a16.786286 16.786286 0 0 1 1.828572-24.356571c7.899429-5.485714 17.152-0.384 25.435428-2.468572 15.616-4.004571 8.155429 1.188571 21.851429 9.435429 9.252571 5.595429 10.788571-1.024 17.115429-1.060572 4.315429 0 7.04 6.180571 14.208 4.388572 5.888-1.499429 8.192-6.016 15.195428-7.04 2.852571-0.420571 5.851429 1.060571 8.576 0.768a71.424 71.424 0 0 0 33.060572-17.188572c8.411429-6.144 13.952-4.900571 23.771428-7.716571 7.204571-2.048 20.443429-12.416 19.748572-21.540571-0.128-1.627429-6.4-9.819429-7.460572-13.531429a84.717714 84.717714 0 0 1 18.285714 1.828571c-1.243429-1.444571-9.947429-7.552-9.947428-4.315428 0-1.664 6.180571-5.083429 7.68-6.144 4.516571 14.628571 11.995429 5.248 20.955428 1.627428a171.428571 171.428571 0 0 1 25.124572-5.211428 68.48 68.48 0 0 0 27.227428-11.940572c6.144-6.784 1.828571-17.828571-2.651428-24.576-5.979429-8.868571-14.939429-12.251429-18.651429-22.692571a164.022857 164.022857 0 0 1-2.432-25.728c-2.267429-12.416-4.096-8.064-12.068571-15.616-6.692571-6.363429 0-5.248-9.252572-9.307429s-17.243429-2.907429-23.588571-12.964571a15.085714 15.085714 0 0 1 0.64 1.956571 79.488 79.488 0 0 1-5.284571-13.988571 64.859429 64.859429 0 0 0-12.8-15.835429c-1.828571-2.048-19.803429-26.459429-20.827429-24.484571-1.316571 2.56-15.396571-2.56-16.091429 1.060571 0.548571-3.072-0.128-2.048 3.364572-3.803428-3.236571-20.114286-11.739429-23.04-31.396572-23.259429 1.664-9.636571-7.168-7.68-11.264-12.8a91.062857 91.062857 0 0 1-5.211428-15.451428 153.270857 153.270857 0 0 1-8.704-14.299429c0-1.828571 2.56-4.443429 4.992-6.948571a374.162286 374.162286 0 0 0-42.404572-5.796572c2.688 3.364571 3.328 6.363429-5.211428 6.747429 2.267429 6.272 7.68 9.819429 9.947428 15.835428 1.060571 2.852571 0.164571 3.968 1.115429 6.820572 3.108571 9.728 1.828571 6.052571 0 13.604571-4.132571 17.755429 1.499429 22.619429 6.308571 38.820572a563.456 563.456 0 0 1 7.68 56.32 90.276571 90.276571 0 0 1 0.987429 34.596571c-3.364571 9.142857-18.176 16.457143-24.96 22.528a137.417143 137.417143 0 0 0-21.796571 29.019429 141.202286 141.202286 0 0 0-10.587429 16.859428c-6.016 12.8 0 5.156571 1.024 12.8a84.461714 84.461714 0 0 0 2.011429 21.412572c3.2 8.448 11.172571 13.696 13.824 22.235428a15.030857 15.030857 0 0 1-7.314286 19.620572c-4.315429 1.444571-9.142857-1.828571-13.476572-1.115429a45.275429 45.275429 0 0 0-17.755428 9.142857c-6.656 5.083429-9.142857 13.312-16.256 18.139429-5.924571 4.004571-10.148571 1.572571-16.457143 3.456s-10.715429 10.148571-16.036571 12.8c-8.027429 3.84-12.544-1.664-21.028572-0.548572a122.258286 122.258286 0 0 0-24.923428 11.940572 45.458286 45.458286 0 0 0-27.428572 26.752 98.048 98.048 0 0 1-19.584 27.428571c-8.155429 10.075429-10.660571 18.596571-23.259428 21.284572-1.444571 0.347429 3.072-10.532571 3.547428-11.428572a262.381714 262.381714 0 0 1 16.64-23.643428c7.972571-11.392 4.608-13.531429-3.492571-2.523429-9.307429 12.635429-20.114286 25.179429-28.123429 38.528-3.035429 5.028571-2.468571 8.283429-7.460571 13.092572s-11.227429 6.875429-16.091429 11.264a66.468571 66.468571 0 0 0-18.779428 59.428571 79.36 79.36 0 0 1 2.139428 20.260571 28.379429 28.379429 0 0 1-8.740571 15.067429c-1.408 2.212571-4.900571 7.68-5.083429 8.027429a68.662857 68.662857 0 0 1-13.44 18.56c-3.657143 3.163429-13.056 10.459429-21.942857 16.603428a378.002286 378.002286 0 0 0 151.588571 113.371429 21.613714 21.613714 0 0 1 3.657143-8.868572c4.900571-7.314286 9.563429-6.747429 19.163429-8.740571-1.024-11.136-14.043429-11.227429-22.820572-9.984-10.496 1.408-21.595429 4.900571-30.683428-4.315429 5.028571-2.980571 18.816-14.756571 16.987428-2.468571a171.885714 171.885714 0 0 0 29.659429-0.384c3.968-0.512 17.188571-4.955429 20.772571-2.907429 1.499429 0.859429 3.072 8.228571 4.699429 10.532572a86.637714 86.637714 0 0 1-8.612571 1.115428c6.528 8.356571 13.019429 1.828571 21.339428-2.011428-9.142857-5.595429-3.748571-18.852571 5.211429-8.064 7.314286 8.868571-1.828571 15.36-11.136 20.516571 9.435429 11.739429 15.195429 12.8 24.064-0.475428 1.444571 8.192 8.027429 4.900571 14.939428 4.315428V724.662857c-3.035429 0-6.272 1.664-9.252571 1.371429 7.003429 11.227429 2.523429 13.787429 12.580571 17.444571 7.972571 2.907429 30.811429 0.164571 33.627429 7.716572a195.931429 195.931429 0 0 1-49.664-11.136c-6.235429-3.108571-13.659429-13.019429-19.84-6.564572s4.516571 17.188571 10.112 20.443429h-1.316572a376.228571 376.228571 0 0 0 78.336 8.228571 381.531429 381.531429 0 0 0 51.2-3.547428c-5.796571-3.072-1.499429-5.12-5.723428-8.228572a155.428571 155.428571 0 0 0-31.963429-14.628571c12.16 0 41.691429-11.428571 47.36 5.632l-11.776 1.828571a101.997714 101.997714 0 0 0 24.155429 11.684572 375.789714 375.789714 0 0 0 199.314286-109.988572z m68.736-149.156571c0.676571 1.499429 2.340571 1.956571 3.035429 3.2 1.408 2.596571 1.060571 4.352 2.816 6.564571s4.388571 2.980571 6.491428 4.864a7.442286 7.442286 0 0 1 1.700572 2.176 369.993143 369.993143 0 0 0 14.884571-54.144l-0.292571-0.420571a31.469714 31.469714 0 0 0-8.100572-1.664 15.908571 15.908571 0 0 0-10.587428 5.485714 50.486857 50.486857 0 0 0-9.142858 9.947428c-2.395429 3.748571-0.896 7.643429-0.731428 11.995429 0.146286 3.529143-1.609143 8.704-0.073143 11.977143z m4.864-194.779429a114.925714 114.925714 0 0 0-21.083429 23.04c-5.485714 8.740571-2.139429 17.755429-1.828571 27.776 0.347429 8.448-3.748571 20.443429-0.164571 28.032 1.627429 3.456 5.485714 4.608 6.948571 7.460571 3.291429 6.016 2.56 10.075429 6.619429 15.232 4.352 5.595429 10.203429 6.948571 15.012571 11.300572s4.955429 8.155429 8.155429 13.988571a52.589714 52.589714 0 0 0 13.092571 15.140572 379.465143 379.465143 0 0 0 4.315429-56.923429 375.606857 375.606857 0 0 0-12.8-96.914286 47.762286 47.762286 0 0 0-18.267429 11.867429z"  horiz-adv-x="1024" />
      
      <glyph glyph-name="gaokaozhiyuanguihuashi" unicode="&#59253;" d="M641.912471 379.256471c52.976941-21.248 106.827294-40.794353 158.825411-64.210824a114.567529 114.567529 0 0 0 57.976471-68.668235l0.843294-2.288941 5.210353-17.468236a427.068235 427.068235 0 0 0 21.835294-133.722353 589.402353 589.402353 0 0 0-366.742588-135.243294l-13.312-0.090353a589.643294 589.643294 0 0 0-373.850353 133.632c0.120471 19.892706 0.466824 36.141176 1.189647 43.806118a496.233412 496.233412 0 0 0 14.290824 75.068235 134.430118 134.430118 0 0 0 83.425882 97.15953c51.2 20.690824 102.159059 42.029176 155.813647 64.12047q34.921412-117.248 70.023529-234.480941c1.310118 0.210824 2.800941 0.346353 4.201412 0.512 4.517647 39.740235 9.878588 79.344941 12.815059 119.250824 1.189647 15.525647 5.812706 20.992 22.588235 20.615529 33.716706-0.768 33.039059 0 36.141177-30.870588a864.813176 864.813176 0 0 1 17.257411-110.47153q11.068235 36.005647 21.835295 72.146824c15.691294 53.398588 31.623529 106.752 46.682353 160.316235 3.809882 13.447529 10.541176 15.902118 22.979764 10.902588z m6.4-186.096942c-17.513412 0.165647-20.826353-9.758118-20.87153-23.326117s3.132235-23.657412 20.48-23.657412c33.972706-0.120471 67.945412 0 101.918118-0.120471 16.564706 0 19.169882 9.336471 18.959059 22.272s-0.090353 24.560941-18.582589 24.726589c-16.926118 0.090353-33.927529-0.090353-50.974117-0.090353v0.165647c-16.956235-0.015059-33.867294-0.105412-50.913883 0.030117zM476.220235 380.446118a247.717647 247.717647 0 0 0 48.564706 0.090353c3.388235-0.301176 8.568471-9.712941 8.432941-14.667295-0.346353-16.112941-2.891294-32.195765-5.044706-53.142588-17.814588 0-36.141176-4.517647-50.928941 1.099294-24.304941 9.336471-11.158588 35.162353-11.158588 60.385883-0.888471 1.822118 5.240471 5.677176 10.134588 6.234353zM422.354824 783.179294a180.600471 180.600471 0 0 0 182.618352-4.623059c43.128471-25.057882 66.544941-84.103529 51.109648-172.483764 20.781176-10.541176 23.913412-29.003294 10.044235-65.867295-4.517647-12.122353-7.845647-27.904-25.99153-18.145882-15.525647-26.458353-29.003294-52.931765-45.628235-77.146353-36.141176-52.299294-131.809882-53.052235-169.562353-1.65647-12.047059 16.414118-21.76 34.635294-32.783059 51.696941-6.791529 10.541176-6.144 27.316706-26.593882 26.714353-3.734588-0.165647-9.547294 10.179765-11.489882 16.564706a293.647059 293.647059 0 0 0-8.402824 38.671058c-2.243765 13.357176-1.822118 25.825882 16.037647 26.639059-0.421647 4.833882-0.843294 9.667765-1.234823 14.501647l-0.768 9.667765c-4.517647 61.153882-2.846118 120.470588 62.644706 155.437176z"  horiz-adv-x="1024" />
      
      <glyph glyph-name="jiamengshang" unicode="&#59254;" d="M980.992 852.992A146.6368 146.6368 0 0 0 1024 750.08v-732.16a146.8416 146.8416 0 0 0-145.92-145.92H145.92A146.8416 146.8416 0 0 0 0 17.92V750.08A146.8416 146.8416 0 0 0 145.92 896h732.16a146.6368 146.6368 0 0 0 102.912-43.008z m-250.0096-644.9664l22.016 22.016-190.0288 197.9904a118.1952 118.1952 0 0 0-75.4944-20.48 99.1232 99.1232 0 0 0-70.5024 35.4816 113.4592 113.4592 0 0 0 0 159.9744l44.032 44.032a102.784 102.784 0 0 1-69.9904 17.4848 134.784 134.784 0 0 1-68.9664-31.5136l-146.0736-153.9584a107.1872 107.1872 0 0 1-32.9984-76.5184 110.4896 110.4896 0 0 1 32.9984-77.5424L366.08 128a165.4784 165.4784 0 0 1 130.9952-65.9712h36.9408a68.6336 68.6336 0 0 1 11.4944 1.024 70.4512 70.4512 0 0 1 17.4848 5.9904l44.032 22.016a52.1472 52.1472 0 0 0 11.4944 7.5264 36.5568 36.5568 0 0 1 10.5216 7.5264 15.9488 15.9488 0 0 1 10.9568 4.5568q5.12 4.5056 10.9824 10.5216l7.0144 7.0144 37.0176 37.0176 35.9936 42.7776z m-272.0256 314.88a35.2512 35.2512 0 0 1 16.0256-28.9536 36.224 36.224 0 0 1 51.9424 0l13.9776 13.9776a24.2432 24.2432 0 0 0 15.0016 7.0144 145.92 145.92 0 0 0 14.6176 1.024 32.2048 32.2048 0 0 0 10.9824-1.9712 23.5264 23.5264 0 0 0 10.5216-13.0304l212.992-218.9824 35.9936 43.008a110.464 110.464 0 0 1 32.9984 77.5424 107.1872 107.1872 0 0 1-32.9984 76.5184l-145.92 153.9584a250.368 250.368 0 0 1-34.0224 19.5328 97.7408 97.7408 0 0 1-39.5008 8.9856 105.216 105.216 0 0 1-38.9888-5.9904 93.696 93.696 0 0 1-33.5104-22.528l-74.0096-81.0496a35.3792 35.3792 0 0 1-16.0768-28.9792z"  horiz-adv-x="1024" />
      
      <glyph glyph-name="zaixianjiaoyupingtai" unicode="&#59255;" d="M897.490824 56.636235c-6.791529 95.066353-98.334118 155.105882-251.000471 164.668236a74.736941 74.736941 0 0 0-50.733177 18.748235v20.60047c86.121412 39.68 124.807529 148.419765 124.80753 241.588706 0 2.319059 0.210824 7.273412 0.346353 11.474824 0.135529 3.568941 0.256 6.671059 0.256 7.785412v30.117647l76.92047 23.521882v-62.464a44.769882 44.769882 0 0 1-29.108705-41.788235 44.920471 44.920471 0 0 1 44.8-44.845177 44.890353 44.890353 0 0 1 44.8 44.845177 44.754824 44.754824 0 0 1-29.06353 41.788235v84.329412h-0.602353a45.312 45.312 0 0 1 4.126118 18.838588 46.396235 46.396235 0 0 1-13.763765 32.978824 15.661176 15.661176 0 0 1-5.421176 3.478588c-99.960471 38.912-263.077647 103.092706-274.989177 109.718588a54.693647 54.693647 0 0 1-58.307765 0.421647c-11.52-6.189176-172.754824-68.532706-271.676235-106.450823a15.510588 15.510588 0 0 1-5.49647-3.523765 45.417412 45.417412 0 0 1-13.236706-32.195765 46.396235 46.396235 0 0 1 13.763764-32.978823 16.338824 16.338824 0 0 1 6.4-3.870118l91.708236-28.611765v-27.858823c0-1.626353 0.135529-5.888 0.256-10.541177 0.180706-5.330824 0.346353-11.309176 0.346353-14.064941 0-93.123765 38.686118-201.788235 124.852706-241.543529v-20.464941a74.119529 74.119529 0 0 0-50.778353-18.868706c-152.666353-9.637647-244.163765-69.647059-251.000471-164.713412-2.063059-28.717176-1.505882-44.032 7.183059-53.353412a20.314353 20.314353 0 0 1 15.058823-6.580706h727.341177a20.464941 20.464941 0 0 1 15.058823 6.580706c8.643765 9.336471 9.155765 24.636235 7.092706 53.353412z"  horiz-adv-x="1024" />
      
      <glyph glyph-name="jiaoyugongzuozhe" unicode="&#59256;" d="M654.215529 58.684235V717.266824a46.772706 46.772706 0 0 1-48.052705 43.053176H222.268235a35.870118 35.870118 0 0 1-35.975529-18.522353 46.004706 46.004706 0 0 1-11.941647-36.909176v-652.348236h-29.967059a16.173176 16.173176 0 0 1-18.070588-18.522353 18.718118 18.718118 0 0 1 6.023529-24.621176c6.023529-6.144 11.941647-6.144 24.094118-6.144h719.631059a16.188235 16.188235 0 0 1 18.070588 18.522353 23.552 23.552 0 0 1-18.070588 30.765176h-23.988706V464.835765a32.180706 32.180706 0 0 1-35.97553 36.909176H708.065882v-436.916706l-6.023529-6.144z m-335.962353 393.923765v49.257412h191.954824v-49.257412z m0-264.673882v49.257411h191.954824v-49.27247z m0 443.181176h191.954824v-49.302588H330.300235c-6.023529 0-6.023529 0-6.023529 6.144a123.753412 123.753412 0 0 0-6.02353 43.143529z m0-264.673882h191.954824v-49.362824H318.253176z"  horiz-adv-x="1024" />
      
      <glyph glyph-name="jiaoyupeixunjigou" unicode="&#59257;" d="M836.833882 373.805176l-66.635294-39.981176v41.095529a71.122824 71.122824 0 0 1-70.942117 70.942118H177.287529a71.152941 71.152941 0 0 1-70.972235-70.942118V67.614118a71.183059 71.183059 0 0 1 70.972235-70.942118h521.968942a71.122824 71.122824 0 0 1 70.942117 70.987294v41.09553l66.635294-39.966118a52.811294 52.811294 0 0 1 80.052706 45.17647V328.523294a52.856471 52.856471 0 0 1-80.052706 45.312zM550.384941 192.075294l-118.39247-68.352a33.761882 33.761882 0 0 0-50.642824 29.184v136.719059a33.761882 33.761882 0 0 0 50.642824 29.229176l118.362353-68.352a33.731765 33.731765 0 0 0 0-58.428235zM424.071529 618.767059a151.792941 151.792941 0 1 1 303.570824 0 151.792941 151.792941 0 0 1-303.570824 0z m-197.586823-120.470588a93.876706 93.876706 0 1 1 0 132.758588 93.936941 93.936941 0 0 1 0-132.788706z"  horiz-adv-x="1024" />
      
      <glyph glyph-name="jiaoyuzimeiti" unicode="&#59258;" d="M865.008941 161.460706v-4.969412a49.016471 49.016471 0 0 1 0 4.969412zM481.596235 393.020235L142.878118 550.354824a31.939765 31.939765 0 0 0-14.275765 44.438588 34.063059 34.063059 0 0 0 15.058823 13.929412L481.520941 765.545412a67.584 67.584 0 0 0 56.576 0l338.82353-156.777412a32.030118 32.030118 0 0 0 14.396235-44.438588 34.078118 34.078118 0 0 0-15.058824-13.929412L538.142118 393.020235a67.493647 67.493647 0 0 0-56.545883 0zM876.077176 357.150118l-337.950117-157.515294a67.041882 67.041882 0 0 0-56.741647 0L142.667294 356.924235a32 32 0 0 0-14.275765 44.483765 34.063059 34.063059 0 0 0 15.058824 13.929412l67.252706 31.201882 245.248-113.92a127.804235 127.804235 0 0 1 53.443765-11.836235 130.514824 130.514824 0 0 1 54.302117 12.167529l245.248 114.266353 67.97553-31.367529a31.954824 31.954824 0 0 0 14.878117-44.227765 34.093176 34.093176 0 0 0-15.721412-14.471529zM876.077176 167.017412l-337.950117-157.515294a67.041882 67.041882 0 0 0-56.741647 0L142.667294 166.791529a31.939765 31.939765 0 0 0-14.275765 44.438589 34.078118 34.078118 0 0 0 15.058824 13.929411l67.252706 31.247059 245.248-113.965176a127.653647 127.653647 0 0 1 107.745882 0.301176L808.809412 256.752941l67.975529-31.503059a31.834353 31.834353 0 0 0 14.441412-44.227764 33.551059 33.551059 0 0 0-15.149177-14.004706z"  horiz-adv-x="1024" />
      
      <glyph glyph-name="zhankai" unicode="&#59252;" d="M511.829333 277.034667l-302.933333 302.933333a47.616 47.616 0 0 1-67.285333 0 47.616 47.616 0 0 1 0-67.285333l336.426666-336.384a46.933333 46.933333 0 0 1 33.664-13.909334 47.274667 47.274667 0 0 1 33.664 13.909334l336.384 336.384a47.530667 47.530667 0 0 1 0 67.285333 47.616 47.616 0 0 1-67.285333 0z"  horiz-adv-x="1024" />
      
      <glyph glyph-name="zhaoshengzhengce" unicode="&#59251;" d="M651.008 15.4368a174.08 174.08 0 0 1 189.0944 35.5456l3.2 3.2a175.7952 175.7952 0 0 1 38.3104 57.472 172.4672 172.4672 0 0 1 13.2224 67.7504 181.76 181.76 0 0 1-13.2224 67.7504 178.7008 178.7008 0 0 1-38.3104 57.472l-2.1376 2.4704a175.36 175.36 0 0 1-122.4576 49.152H541.248v-177.5744a179.2 179.2 0 0 1 13.44-67.7504 175.1808 175.1808 0 0 1 38.3104-57.472l3.2-3.2a172.4416 172.4416 0 0 1 54.528-35.4944zM375.04 754.5984a174.784 174.784 0 0 1-134.272 0 177.792 177.792 0 0 1-57.6896-38.3104l-2.8544-2.8544a174.4128 174.4128 0 0 1-36.736-190.2976 178.2784 178.2784 0 0 1 35.9296-54.9504l2.8544-2.9056a178.048 178.048 0 0 1 57.472-38.3104 172.5952 172.5952 0 0 1 67.7504-13.2224H484.864V590.8352a174.464 174.464 0 0 1-48.9344 122.112l-2.9056 2.8544a173.0688 173.0688 0 0 1-57.472 38.4z m275.968 0.384a181.0816 181.0816 0 0 1-57.472-38.3104 177.3696 177.3696 0 0 1-52.0192-125.4144v-177.5744h177.664a177.1904 177.1904 0 0 1 163.6736 109.4016A179.3408 179.3408 0 0 1 896 591.0528a180.7744 180.7744 0 0 1-13.2224 67.584 174.2464 174.2464 0 0 1-38.3104 57.472 182.2464 182.2464 0 0 1-57.472 38.3104 179.9936 179.9936 0 0 1-135.552 0z m-275.968-739.84a176.512 176.512 0 0 1 109.7344 164.096v177.664H307.4432a175.7696 175.7696 0 0 1-67.7504-13.44 177.6256 177.6256 0 0 1-98.944-230.8736 177.6512 177.6512 0 0 1 230.8736-98.944c1.152 0.4736 2.2656 0.9344 3.4176 1.4464z"  horiz-adv-x="1024" />
      
      <glyph glyph-name="zhengshitianbaoqianzhidao" unicode="&#59246;" d="M297.04 331.424a39.568 39.568 0 0 0-30.24 13.936 30.496 30.496 0 0 0 9.696 45.104l160.928 96.64a47.152 47.152 0 0 0 26.592 5.376 31.504 31.504 0 0 0 22.992-13.936l44.8-58.016 166.992 102.016a40 40 0 0 0 50.816-8.592 30.496 30.496 0 0 0-9.696-45.104l-197.232-119.168a47.504 47.504 0 0 0-26.592-5.376 31.424 31.424 0 0 0-22.992 13.968l-44.8 57.984-130.688-79.456a34.432 34.432 0 0 0-20.576-5.376zM802.24 48.992H203.28a32.432 32.432 0 1 0 0 64.416H802.24a33.792 33.792 0 0 0 36.288-32.192 34.576 34.576 0 0 0-36.288-32.224z m55.648 114.896H158.528a70.272 70.272 0 0 0-73.824 65.504v431.68a70.4 70.4 0 0 0 73.824 65.52h699.376a70.272 70.272 0 0 0 73.824-65.52v-431.68a70.272 70.272 0 0 0-73.84-65.504zM158.528 663.232a1.104 1.104 0 0 1-1.232-1.056v-431.712c0-1.056 1.232-1.056 1.232-1.056h699.376a1.104 1.104 0 0 1 1.232 1.056V661.072c0 1.104-1.232 1.104-1.232 1.104H158.528z"  horiz-adv-x="1024" />
      
      <glyph glyph-name="mianfeishiyong" unicode="&#59247;" d="M497.104 0.096a83.2 83.2 0 0 0-49.6 16.176l-286.4 211.2a76.032 76.032 0 0 0-14.992 109.648l317.824 396.64a84.048 84.048 0 0 0 94.4 25.152 66.816 66.816 0 0 1 28.656-4.48l170.48 12.8a75.2 75.2 0 0 0 80.48-59.392l32-166.896a36.384 36.384 0 0 1 8.16-16.608 75.376 75.376 0 0 0 1.6-97.264L561.92 30.432a82.784 82.784 0 0 0-64.816-30.336z m-19.04 73.184a34.096 34.096 0 0 1 46.4 5.888l296.784 370.352a30.672 30.672 0 0 1-0.64 39.536 74 74 0 0 0-16.656 34.192l-29.84 155.84a27.552 27.552 0 0 1-29.552 21.776l-159.168-12a106.592 106.592 0 0 0-45.808 6.912 34.112 34.112 0 0 1-38.4-10.256L204.464 315.152a30.944 30.944 0 0 1 6.112-44.576zM609.232 376.464a120 120 0 0 0-122.16 117.632 120 120 0 0 0 122.672 117.248 120 120 0 0 0 122.16-117.664 114.544 114.544 0 0 0-25.36-71.344 122.896 122.896 0 0 0-81.168-44.8 127.024 127.024 0 0 0-16.144-1.072z m0.384 174.4a59.92 59.92 0 0 1-7.808-0.512 57.408 57.408 0 0 1-51.104-63.792 58.88 58.88 0 0 1 66.48-49.056 59.776 59.776 0 0 1 39.328 21.776 55.344 55.344 0 0 1-10.88 79.792 61.024 61.024 0 0 1-36.016 11.712z"  horiz-adv-x="1024" />
      
      <glyph glyph-name="zengsongpeixun" unicode="&#59248;" d="M292.144 335.168a37.232 37.232 0 0 0 0.592 52.656l108.8 106.16a37.2 37.2 0 0 0 52.016 0l59.36-58 165.904 166.24a37.248 37.248 0 1 0 54.752-50.416c-0.64-0.72-1.36-1.408-2.096-2.096l-192-192.432a37.2 37.2 0 0 0-52.32-0.304l-59.696 58.336-82.768-80.832a37.2 37.2 0 0 0-52.656 0.72h0.08zM127.376 767.888a37.232 37.232 0 1 1-2.304-74.432 20.8 20.8 0 0 1 2.304 0h20.672v-502.72a37.248 37.248 0 0 1 37.184-37.248h237.92l-90.72-90.688a37.28 37.28 0 0 1 52.704-52.704l127.904 128 128-127.904a37.232 37.232 0 0 1 52.608 52.656l-90.72 90.64h237.952a37.2 37.2 0 0 1 37.152 37.248V693.408h20.576a37.248 37.248 0 1 1 0 74.48h-771.2z m676.224-74.432v-465.44H222.528V693.408z"  horiz-adv-x="1024" />
      
      <glyph glyph-name="xitongjiaofu" unicode="&#59249;" d="M574.416 580.16a29.264 29.264 0 0 1-41.28-41.232l18.016-18.016h-145.6a29.264 29.264 0 0 1-20.624-9.392 28.8 28.8 0 0 1-7.904-21.008 29.584 29.584 0 0 1 30.016-28.512h143.648l-17.6-17.6a29.44 29.44 0 0 1 42-41.232l88.528 88.496-88.528 88.528zM893.92 285.744l-0.336 0.384a142.592 142.592 0 0 1-95.28 73.504 185.024 185.024 0 0 1-25.6 4.096 284.464 284.464 0 1 1-522.72 16.144H157.312a29.28 29.28 0 0 1-29.248-29.248v-321.792a29.312 29.312 0 0 1 29.248-29.248h362.752a27.648 27.648 0 0 1 16.864 5.632l347.248 244.88a29.04 29.04 0 0 1 9.728 35.648z m-180.8 88.88l-1.84-2.992c-2.256-3.76-4.912-7.904-7.904-12.384-62.624-13.152-135.024-49.904-214.544-109.152l-169.12 118.88a227.856 227.856 0 0 0-3.376 222.4 226.08 226.08 0 0 0 396.8-216.816zM186.592 58.096V321.008h98.992l154.48-108.384-54-40.512-84.8 59.2a28.336 28.336 0 0 1-21.728 4.8 29.728 29.728 0 0 1-19.2-12 28.256 28.256 0 0 1-4.912-21.776 29.936 29.936 0 0 1 12-19.2l102.24-71.424a29.888 29.888 0 0 1 34.464 0.32l101.984 76.496 0.768 0.768a10.512 10.512 0 0 1 2.64 2.992c144 111.024 228.032 121.6 273.024 110.64l4.144-0.768a92.592 92.592 0 0 0 38.24-21.728l-315.072-222.4z"  horiz-adv-x="1024" />
      
      <glyph glyph-name="lijizixun" unicode="&#59250;" d="M178.736-0.416a34.72 34.72 0 0 0-23.6 60.192l71.792 66.72a384.176 384.176 0 1 0 285.312-126.912z m333.504 69.456a314.72 314.72 0 1 1-230.576 100.496l43.456-46.784-57.92-53.792zM336.88 328.4a55.36 55.36 0 1 0 55.36 55.36 55.44 55.44 0 0 0-55.36-55.36z m171.392 0a55.36 55.36 0 1 0 55.408 55.36 55.44 55.44 0 0 0-55.408-55.36z m179.328 0a55.36 55.36 0 1 0 55.408 55.36 55.44 55.44 0 0 0-55.408-55.36z"  horiz-adv-x="1024" />
      
      <glyph glyph-name="zhuanyeku" unicode="&#59065;" d="M1010.988659 350.023169H46.675999a47.025632 47.025632 0 0 1 0-94.051265 144.348462 144.348462 0 0 0 140.70229-113.730605h859.747434a32.790576 32.790576 0 0 0 0-65.581152H186.679023a144.273541 144.273541 0 0 0-139.853181-110.633856 47.025632 47.025632 0 0 1 0-94.026291h964.212765a238.599517 238.599517 0 0 1 237.700461 239.024071 238.674438 238.674438 0 0 1-237.750409 238.999098zM1059.912299 684.771748a144.847938 144.847938 0 0 0 139.853182 117.077092 48.723849 48.723849 0 0 1 49.073482 44.952809 47.000658 47.000658 0 0 1-46.900763 49.198351H392.862571a0.274712 0.274712 0 0 1-0.274712-0.274712V684.896617a0.274712 0.274712 0 0 1 0.274712-0.249738h666.79999a0.249738 0.249738 0 0 1 0.249738 0.124869zM1201.913226 511.9282a144.273541 144.273541 0 0 0-139.004073 107.037632H395.75953v-78.842231l-77.019145 95.574665-84.336463-95.574665V895.825184a238.999098 238.999098 0 0 1 3.321513-477.948248h964.237738a47.025632 47.025632 0 0 1 0 94.026291z"  horiz-adv-x="1248" />
      
      <glyph glyph-name="gaoxiaoku" unicode="&#59066;" d="M512 896L0 689.00864v-68.97664h1024v68.99712z m0-241.50016a77.6192 77.6192 0 1 0 76.8 77.6192 77.2096 77.2096 0 0 0-76.8-77.6192zM0-59.00288h1024V-128H0zM68.99712 43.29472m20.48 0l845.04576 0q20.48 0 20.48-20.48l0-10.79296q0-20.48-20.48-20.48l-845.04576 0q-20.48 0-20.48 20.48l0 10.79296q0 20.48 20.48 20.48ZM68.99712 554.5984v-542.1056a4.93568 4.93568 0 0 1 4.9152-4.97664H336.6912a4.95616 4.95616 0 0 1 4.9152 4.97664V281.64096a69.9392 69.9392 0 0 0 64.86016 70.8608 68.52608 68.52608 0 0 0 71.43424-68.9152V12.4928a4.93568 4.93568 0 0 1 4.9152-4.97664h58.32704a4.93568 4.93568 0 0 1 4.9152 4.97664V281.64096a69.9392 69.9392 0 0 0 64.86016 70.8608 68.52608 68.52608 0 0 0 71.43424-68.9152V12.4928a4.93568 4.93568 0 0 1 4.9152-4.97664h262.77888a4.93568 4.93568 0 0 1 4.9152 4.97664V554.5984a4.95616 4.95616 0 0 1-4.9152 4.97664H73.91232a4.95616 4.95616 0 0 1-4.9152-4.97664z m165.4784-408.9856H142.06976a4.95616 4.95616 0 0 0-4.9152 4.97664v93.55264a4.93568 4.93568 0 0 0 4.9152 4.97664h92.40576a4.93568 4.93568 0 0 0 4.9152-4.97664v-93.55264a4.95616 4.95616 0 0 0-4.9152-4.97664z m0 172.50304H142.06976a4.93568 4.93568 0 0 0-4.9152 4.97664v93.55264a4.93568 4.93568 0 0 0 4.9152 4.97664h92.40576a4.93568 4.93568 0 0 0 4.9152-4.97664v-93.55264a4.93568 4.93568 0 0 0-4.9152-5.0176z m647.45472-172.50304h-92.40576a4.95616 4.95616 0 0 0-4.9152 4.97664v93.55264a4.93568 4.93568 0 0 0 4.9152 4.97664h92.40576a4.93568 4.93568 0 0 0 4.9152-4.97664v-93.55264a4.95616 4.95616 0 0 0-4.9152-4.97664z m0 172.50304h-92.40576a4.93568 4.93568 0 0 0-4.9152 4.97664v93.55264a4.93568 4.93568 0 0 0 4.9152 4.97664h92.40576a4.93568 4.93568 0 0 0 4.9152-4.97664v-93.55264a4.95616 4.95616 0 0 0-4.9152-5.0176z"  horiz-adv-x="1024" />
      
      <glyph glyph-name="lishishuju" unicode="&#59067;" d="M0-46.65344m40.67328 0l925.02016 0q40.67328 0 40.67328-40.67328l0 0q0-40.67328-40.67328-40.67328l-925.02016 0q-40.67328 0-40.67328 40.67328l0 0q0 40.67328 40.67328 40.67328ZM75.93984-117.16608m0 40.96l0 265.44128q0 40.96 40.96 40.96l75.53024 0q40.96 0 40.96-40.96l0-265.44128q0-40.96-40.96-40.96l-75.53024 0q-40.96 0-40.96 40.96ZM321.16736-117.16608m0 40.96l0 171.84768q0 40.96 40.96 40.96l79.6672 0q40.96 0 40.96-40.96l0-171.84768q0-40.96-40.96-40.96l-79.6672 0q-40.96 0-40.96 40.96ZM565.80096-118.82496m0 40.96l0 344.02304q0 40.96 40.96 40.96l79.6672 0q40.96 0 40.96-40.96l0-344.02304q0-40.96-40.96-40.96l-79.6672 0q-40.96 0-40.96 40.96ZM812.25728-125.29664m0 40.96l0 609.54624q0 40.96 40.96 40.96l79.6672 0q40.96 0 40.96-40.96l0-609.54624q0-40.96-40.96-40.96l-79.6672 0q-40.96 0-40.96 40.96ZM396.288 270.78656l-334.1312 125.37856 28.52864 70.7584 272.87552-102.4 108.544 170.78272 138.26048-66.70336 249.99936 311.58272 62.21824-46.46912-289.56672-360.89856-131.52256 63.488zM958.44352 676.70016l-73.728 67.72736-73.728 67.72736 106.496 41.92256 106.496 41.92256-32.768-109.64992z"  horiz-adv-x="1024" />
      
      <glyph glyph-name="zhinengpipei" unicode="&#59068;" d="M391.571571 11.126261m26.887368 0l187.003388 0q26.887368 0 26.887369-26.887368l0-8.907849q0-26.887368-26.887369-26.887368l-187.003388 0q-26.887368 0-26.887368 26.887368l0 8.907849q0 26.887368 26.887368 26.887368ZM439.735387-82.129699m22.935151 0l98.600669 0q22.935151 0 22.935151-22.93515l0 0q0-22.935151-22.935151-22.935151l-98.600669 0q-22.935151 0-22.935151 22.935151l0 0q0 22.935151 22.935151 22.93515ZM506.144935 895.849693A365.344661 365.344661 0 0 1 143.482867 547.010149a358.812239 358.812239 0 0 1 230.232051-342.737156v-115.310565a46.095557 46.095557 0 0 1 46.689414-45.460744h188.825913a46.075079 46.075079 0 0 1 46.689414 45.460744v117.542647a358.955584 358.955584 0 0 1 224.62113 330.450468A364.013603 364.013603 0 0 1 506.144935 895.849693z m6.716722-140.068241a44.825933 44.825933 0 0 0 45.399312-44.211598 44.273032 44.273032 0 0 0-30.204775-41.610916l3.337884-597.808794h-37.392487l-3.337883 600.880466a44.00682 44.00682 0 0 0-23.201362 38.539244 44.825933 44.825933 0 0 0 45.378833 44.313987z m-77.815689-683.631308c-2.477815 138.020459-20.928325 197.672329-32.887368 202.607481a98.170635 98.170635 0 0 0-81.747429 40.423203c-34.464159 49.146751-21.030714 131.058003-9.235494 177.645028a43.863475 43.863475 0 0 0-20.088734 36.696241 45.419789 45.419789 0 1 0 57.030709-42.69624c-11.631398-44.825933-22.136516-115.044353 3.194539-151.146738a62.252551 62.252551 0 0 1 52.648457-24.573375c32.887368-1.187713 51.911256-39.726957 61.720128-124.91466 3.706484-32.232078 5.959044-71.221834 6.716723-113.938551z m261.030682 370.873671c4.095563-35.242316 10.689418-123.133089-22.075083-160.218409a53.242314 53.242314 0 0 0-40.955625-18.430032c-16.034128 0-39.337879-51.911256-42.389073-192.122841h-37.392487a873.31729 873.31729 0 0 0 10.58703 125.631383c4.464163 25.453922 18.081909 102.90101 69.174052 102.90101a15.54266 15.54266 0 0 1 12.655288 5.856654c18.430032 20.948803 18.63481 83.303743 13.86348 127.535819a44.334465 44.334465 0 1 0 53.631392 43.45392 43.699653 43.699653 0 0 0-17.058019-34.587027z"  horiz-adv-x="1024" />
      
      <glyph glyph-name="gaokaojiangtang" unicode="&#59069;" d="M458.236792-1.250167c17.244039 230.767025 192.510652 401.630469 391.390541 381.621648a318.441291 318.441291 0 0 0 62.279244-12.75895V810.939987A86.015398 86.015398 0 0 1 824.785267 895.992832H87.12131A86.015398 86.015398 0 0 1 0 810.939987v-805.227003a86.015398 86.015398 0 0 1 87.12131-85.052845h371.606999a488.096423 488.096423 0 0 0-0.491517 78.089694z m-283.973692 630.779584h511.136262a45.383362 45.383362 0 1 0 0-90.725765H174.2631a45.383362 45.383362 0 1 0 0 90.725765z m0-187.14493h383.362437a45.383362 45.383362 0 1 0 0-90.725765H174.2631a45.383362 45.383362 0 1 0 0 90.725765z m197.487258-294.909935H174.2631a45.383362 45.383362 0 1 0 0 90.725765h197.487258a45.383362 45.383362 0 1 0 0-90.725765zM815.73317 153.946186m-113.519845 0a113.519845 113.519845 0 1 1 227.03969 0 113.519845 113.519845 0 1 1-227.03969 0ZM710.207577-90.531744m-8.630942 8.630942l-190.706156 190.706156q-8.630942 8.630942 0 17.261883l0.014482 0.014481q8.630942 8.630942 17.261883 0l190.706156-190.706156q8.630942-8.630942 0-17.261883l-0.014482-0.014481q-8.630942-8.630942-17.261883 0ZM912.213775 54.352644a126.626954 126.626954 0 0 0-193.002169 0 208.300622 208.300622 0 0 1-111.779058-182.270725h416.580764a208.280142 208.280142 0 0 1-111.799537 182.270725z"  horiz-adv-x="1024" />
      
      <glyph glyph-name="zhuanyeceping" unicode="&#59070;" d="M988.417858 209.924469a270.860571 270.860571 0 0 1-45.238999 55.294385 322.857773 322.857773 0 0 1-58.714445 43.989756l36.084706 34.671627s51.71049 0 77.575975-24.841515S1023.9701 244.555137 1023.9701 244.555137l-35.552242-34.671627m-319.478671-310.95924h-101.434478a6.696764 6.696764 0 0 0-6.84012 6.573888v97.440995l12.922502 12.410517a229.963205 229.963205 0 0 0 63.486146-43.006744 210.548732 210.548732 0 0 0 44.706535-61.049097l-12.922503-12.410518m289.251074 282.513351l-245.077004-239.609004a278.642744 278.642744 0 0 1-47.409815 57.956708 305.49124 305.49124 0 0 1-61.438206 45.525711l249.848704 235.94319a229.512658 229.512658 0 0 0 60.864783-40.958804 202.950874 202.950874 0 0 0 43.006744-58.980678m-507.397664-181.099352c0 62.933202 82.409114 93.652305 175.057929 187.304611H203.07375a39.361411 39.361411 0 1 0 0 78.640904h486.406277c7.53642 0 175.590393 150.052578 212.760508 184.724206V809.581839A88.389099 88.389099 0 0 1 812.274522 895.984436H89.945534A88.389099 88.389099 0 0 1 0 809.581839V-41.562588A88.389099 88.389099 0 0 1 89.945534-127.985664h361.440966m-290.807509 768.366683a40.139628 40.139628 0 0 0 40.958804 39.320452h479.934786a39.361411 39.361411 0 1 0 0-78.640904H201.455877a40.139628 40.139628 0 0 0-40.958804 39.320452m1.617873-208.521271a40.139628 40.139628 0 0 0 40.958804 39.320452h477.784449a39.361411 39.361411 0 1 0 0-78.640904h-477.170067a40.958804 40.958804 0 0 0-41.470789 39.320452"  horiz-adv-x="1024" />
      
      <glyph glyph-name="zhiyuanpingjia" unicode="&#59071;" d="M1248.68912 695.010999v59.937078a13.460869 13.460869 0 0 1-13.485842 13.410921h-13.810502a13.460869 13.460869 0 0 1-13.510816-13.410921v-744.418506a13.485842 13.485842 0 0 0-11.388045-13.236105c-177.913226-28.71985-341.441553-54.942321-503.046899-81.089871a13.385947 13.385947 0 0 1-9.44009-19.979026c6.817843-11.263176 16.10809-23.974831 23.350487-24.0997l482.818135 0.124869c20.953003 1.12382 55.516718 57.214935 58.338756 90.85462V695.010999zM838.669561 862.335341c-122.54635-22.226666-190.200327-81.764164-184.456357-227.46121v-655.037339a13.385947 13.385947 0 0 1 17.856254-12.661707 1260.651562 1260.651562 0 0 0 453.299125 66.155549 13.410921 13.410921 0 0 1 14.010292 13.485843l-0.274712 52.270126s0.349633 498.376802 0.374607 781.67939a13.435895 13.435895 0 0 1-14.834427 13.336c-103.641197-10.513962-195.869375-15.508719-285.974782-31.766652zM60.161842-127.850157l477.498719-0.124869c7.242397 0.19979 16.457723 12.986367 23.17567 24.274516a13.410921 13.410921 0 0 1-9.440089 19.979026c-160.481526 26.047655-320.913104 52.2951-497.677536 81.164793a13.460869 13.460869 0 0 0-11.313123 13.261078V755.647343a13.410921 13.410921 0 0 1-13.410922 13.435895H13.410921a13.410921 13.410921 0 0 1-13.435895-13.435895v-789.646026c0.998951-33.190157 38.809258-92.752628 60.161842-93.751579zM601.068995-39.143282l0.124869 674.292125c5.893813 145.647099-62.434456 205.184596-185.580177 227.386289C320.713314 879.49233 223.490379 884.237348 112.856523 895.975026c0-280.180865 0.374607-796.264078 0.374606-796.264078l-0.499475-66.530156a1273.51306 1273.51306 0 0 0 488.337341-72.324074z m80.61537-47.300344z"  horiz-adv-x="1248" />
      
      <glyph glyph-name="zhaoshengjihua-copy" unicode="&#60470;" d="M1008.720617 278.41297799999995a38.506734 38.506734 0 0 1 0 76.746369 36.881883 36.881883 0 0 1-35.234774-38.350926 36.9264 36.9264 0 0 1 35.234774-38.395443zM639.72372-33.691889999999944a243.215653 243.215653 0 0 0 240.878539 245.508251 236.961091 236.961091 0 0 0 56.090734-6.677468v201.30341a36.637043 36.637043 0 0 1-34.611544 38.284152c-2.025499 0-8.524901 2.826795-42.490957-12.776223-64.815959-29.647959-195.627562-84.091584-261.534174-112.515341a99.516536 99.516536 0 0 0-41.57837-7.90167 113.717285 113.717285 0 0 0-35.390581 7.90167c-71.671493 28.1344-237.762387 101.007837-292.940534 123.087999a68.221468 68.221468 0 0 1-17.383676 5.03036 36.659301 36.659301 0 0 1-34.611544-38.395443l0.178066-344.000908c9.771362-132.703553 205.821831-193.090125 383.865393-193.090124a818.279222 818.279222 0 0 1 95.710379 5.653589 248.891501 248.891501 0 0 0-16.181731 88.587746zM560.35088 359.254861a133.415816 133.415816 0 0 1 59.229144 11.329437l354.239692 150.220779v-121.81928a32.786369 32.786369 0 0 1 34.78961-30.360223h0.178066a32.719595 32.719595 0 0 1 34.589285 30.51603v151.177882l16.693671 7.078117a73.452151 73.452151 0 0 1-0.645488 141.206196L619.602282 885.150004a188.772028 188.772028 0 0 1-126.270925 0L52.796516 698.358958A76.701852 76.701852 0 0 1 0 627.666827a77.48089 77.48089 0 0 1 53.553296-70.847938l444.919711-186.835563a171.210287 171.210287 0 0 1 61.877873-10.728465zM833.503849-110.90568099999996a115.742784 115.742784 0 1 0 115.742784 115.742783 115.742784 115.742784 0 0 0-115.742784-115.742783z m57.871392 135.085183h-38.595767v38.662542a19.297883 19.297883 0 1 1-38.595766 0v-38.595767h-38.55125a19.297883 19.297883 0 0 1 0-38.595767h38.595766v-38.55125a19.297883 19.297883 0 1 1 38.595767 0v38.506734h38.595767a19.297883 19.297883 0 1 1 0 38.595766z"  horiz-adv-x="1113" />
      
      <glyph glyph-name="zu1-copy" unicode="&#59205;" d="M1211.061962 190.454837l118.98835 444.099274h-73.044065l-119.031572-444.099274h73.087287zM83.330745 577.199392h355.841296l-13.960493-52.124936H113.888232l-22.993753-85.924025h311.280095l-42.789127-167.050482H23.036975L0 190.62772199999995h936.995441l-0.086442-0.172885h73.087287l118.98835 444.099274h-73.044065l-97.118353-362.454162h-409.522201L592.132365 439.150431h321.869323l22.993753 85.924025h-321.869322l13.960493 52.124936h357.915921l23.036974 85.924025H106.324498l-22.993753-85.924025zM1357.236536 646.828972h406.799257l15.516461 56.447071h-146.131352l7.001857 26.019247h-116.481513l-6.958636-26.019247h-144.921155l-14.824919-56.447071zM1661.42833 257.44791499999997l30.643931 117.99426h-246.491305l13.052844 26.278575h241.823401l14.997805 57.138612h-147.514435l13.355394 49.877427h-116.438292l-13.355394-49.877427H1307.877765l-15.041027-57.138612h49.31555l-103.81766-212.043897h117.907817l64.529461 133.683606h161.561371l-17.288536-65.912544h-91.153807l-30.94648-67.771062h200.892791zM1173.675502 744.682087h98.717542l20.573358 76.717879h-27.359108c-42.659463 0-78.792504-27.704879-89.813946-68.938038l-2.117846-7.779841zM103.731217 408.247172l32.632112-109.738984h173.706568l-20.227587 109.738984H103.731217zM687.867635 408.247172l-79.051832-109.738984h173.706567l91.456357 109.738984h-186.111092zM516.365355 896l-84.065507-93.530981h357.699814l60.120885-123.137599h164.284315L938.810738 896h-422.445383zM489.395239 896h-177.207496l-203.572514-216.66858h169.859868L489.395239 896zM1122.803984 190.454837l122.273173 456.374135h92.623333l14.608813 54.588553h-92.580112l7.261185 27.143002h-97.637008l-7.261185-27.143002h-92.580111l-14.652035-54.588553h92.580112l-122.273173-456.374135h97.637008zM1609.562722 635.5914230000001l-33.323654-56.74962h-68.721931l-3.54415 56.74962H1390.430525l4.278913-56.74962h-54.761439l-27.7481-103.428668h93.83353l14.1766 52.902921h216.236366l-14.176599-52.902921h97.550565l27.70488 103.428668H1689.089988l33.323654 56.74962H1609.562722zM2435.825089 555.934493c22.302212 21.869998 38.250886 45.382408 47.932466 70.580449h0.777984l16.035118 61.936181-236.507176 0.475434 34.274523 40.757725-128.151274 0.259328-82.768867-102.607463 168.476785-0.345771 126.552085-0.259328a227.162722 227.162722 0 0 0-52.55715-54.674995c-20.573358-15.343576-43.394226-28.526085-68.419382-39.547527-13.614722 8.601047-25.846362 18.455512-36.651697 29.563397a124.174911 124.174911 0 0 0-25.630255 38.596657l-109.133885 0.216107c2.290731-19.66571 8.601047-38.078001 18.930947-55.193652 10.3299-17.158872 24.160729-33.064326 41.449266-47.71636-17.374979-4.019585-34.274523-7.131521-50.698632-9.33581-16.424109-2.24751-32.113456-3.846699-47.154483-4.797568l-19.147054-74.038157c33.366875 0.432213 67.425291 3.630593 102.218471 9.595138 34.793179 5.964545 69.240588 14.695256 103.342225 26.235354 28.655749-11.669762 59.040351-20.530137 91.24025-26.624346 32.156677-6.094209 64.832011-9.465474 97.896336-10.027351l19.147054 74.038156c-14.52237 1.037312-29.520176 2.722944-44.993416 5.013676-15.516461 2.290731-30.989701 5.229782-46.376498 8.773932 30.989701 17.504643 57.614047 37.256796 79.916259 59.126794zM2044.715178 514.830998l48.66723 188.012831 3.457707 13.398616-275.795374 0.561877-52.124937-201.411447 101.22438-0.216106-65.350667-252.326187-17.807193-1.469525 59.64545 230.369745-79.095053 0.172885-61.417525-237.198717-14.608813-1.469525-17.202093-66.474422 284.482863 22.864089 17.4182 67.209185-79.267938-6.656087 26.970116 104.249874 84.627385-0.172886 19.363161 74.77292-84.627385 0.172885 17.029208 65.739659 84.411278-0.129664z m-145.958467 138.481175l87.739321-0.172885-20.097923-77.625528-87.739321 0.172885 20.097923 77.625528zM1975.388148 186.82424400000002l394.265068-0.821205 50.871518 196.570657-394.265068 0.821205-50.871518-196.570657z m141.463447 132.603073l179.627892-0.34577-19.103833-73.82205-179.627891 0.345771 19.103832 73.822049zM984.236367-128c-16.424109 95.519163 99.409083 130.398784 128.064832 181.486409 23.598852 37.948337 19.536046 74.47037 7.650177 122.359615h-97.593787c-26.019247-41.9247-51.044403-37.213574-73.433058-95.043728-22.345433-57.830154 29.260848-178.28803 35.311836-208.802296zM1223.120716 82.142158l56.317407 0.302549-41.708594-132.732737-56.317407-0.259328 41.708594 132.689516z m6.396758 38.553435c4.970454 15.775789 21.956441 27.964207 42.659463 28.093872 20.659801 0.129664 30.384602-10.97822 25.414149-26.75401-5.273004-16.726659-22.25899-28.958298-42.962013-29.044741-20.703022-0.129664-30.082053 11.92909-25.111599 27.704879zM1434.386628 26.343406999999956l-23.771737-75.680567-56.317407-0.30255 20.789465 66.215094c5.186561 16.510552 0.691541 22.777646-9.508695 22.734425-11.453655-0.043221-23.382745-7.131521-29.563397-26.797231l-19.579267-62.368394-56.317407-0.30255 41.708594 132.732737 53.551241 0.302549-4.106027-13.096066c14.003714 10.502786 30.038832 15.646125 45.987506 15.732568 31.378693 0.129664 50.223198-17.4182 37.127131-59.170015zM1606.580449 106.38932999999997c-9.422252 5.532332-20.357251 8.255276-32.545669 8.946817-12.966402 0.475435-26.148911-2.982272-39.33142-10.3299-22.172548-12.188418-34.144859-31.940571-40.455175-53.551241-6.094209-20.919129-0.691541-36.349147 14.52237-46.462941 9.162924-6.43998 20.486915-10.113794 33.064326-10.329901-8.38494-9.897687-19.319939-18.152963-29.909168-25.284484-6.267094-4.149249-12.793517-7.606956-19.233496-10.805335l-5.921324-2.982272 4.970454-1.858518c4.581462-1.59919 30.427824-11.496877 36.08982-8.730711 20.530137 9.638359 38.639878 23.685295 54.156339 40.714503 12.404525 13.355394 22.820868 27.834543 31.24903 43.22134 3.500929 6.43998 8.38494 15.386797 10.3299 22.086106 7.217964 24.765828 2.506838 44.085767-16.985987 55.366537z m-28.785413-53.810569c-0.994091-3.457707-2.722944-6.915414-4.711126-9.897687-3.198379-4.581462-7.563735-7.823063-12.534189-9.897687-4.451798-1.858518-8.601047-2.766166-12.836738-2.290731-17.07243 1.383083-12.836738 25.284484 1.426305 37.256795 4.538241 3.673814 9.206146 5.532332 14.263042 5.532332 5.273004 0 9.508695-2.074624 12.101975-5.748438 3.111937-4.149249 3.933142-9.206146 2.290731-14.954584zM1764.035793 108.68006100000002c-7.520513 4.149249-16.337667 6.223873-26.10569 6.656086-10.200236 0.475435-20.832686-2.074624-31.162587-7.606956-17.4182-9.206146-26.926895-23.685295-31.594799-39.763633-3.198379-11.021442 0.518656-20.227587 8.341718-25.759919-22.90731-5.964545-36.781361-22.086105-42.57302-41.838258-6.656086-22.777646-1.685632-40.455175 17.4182-50.568968 9.162924-4.84079 20.097923-7.606956 31.681243-8.039169 12.750295-0.475435 25.630255 2.766166 38.078001 9.206145 21.437785 11.28077 32.804997 28.958298 38.596657 48.753672 4.84079 16.553773-0.605099 31.032923-14.479149 38.639879 15.127469 6.915414 22.820868 17.461422 26.235353 29.217626 5.445889 18.585176 1.339862 32.804997-14.435927 41.103495z m-48.796894-120.025663c-4.235691-3.457707-8.903596-5.273004-13.744386-5.273003-5.273004 0-9.33581 1.858518-12.015533 5.273003-3.284822 3.673814-4.019585 8.255276-2.420395 13.787608 0.864427 2.982272 2.420395 5.964545 4.451798 8.946817 6.526422 8.946817 30.600709 10.3299 33.799089 3.198379 3.889921-7.304407-0.561877-18.585176-10.070573-25.932804z m27.531994 77.020429c-3.284822-11.28077-10.070572-17.936856-23.944623-15.862232-13.182509 2.074624-10.546007 18.152963 0.561878 27.143002 3.54415 2.766166 7.477292 4.365355 11.410434 4.365355 4.365355 0 7.563735-1.59919 9.984129-4.365355 2.506838-3.241601 3.241601-6.915414 1.988182-11.28077zM1942.928921 114.21239200000002c-5.229782 0.216107-57.268276-3.198379-91.975013-4.84079-12.231639-26.883674-34.922843-72.438967-30.427823-82.293432 3.803478-8.298497 49.488435-5.273004 53.508019-18.412291 3.717035-12.404525-12.231639-28.569306-36.565254-26.883674-23.080196 1.555968-24.938713 11.496877-31.29225 14.954584-1.29664 0.216107-2.074624 0-2.377174-0.216107-13.614722-10.3299-20.011481-41.838258 1.166976-48.753672 34.966064-10.113794 102.045585-0.907648 121.106196 41.622151 18.887726 41.838258 6.353537 70.580449-56.058078 61.633632 5.229782 14.003714 8.773932 26.192132 12.231639 26.192132l56.663177-0.475435c0.907648 0 1.858518 0.907648 2.161068 1.858518 1.94496 6.656086 10.157015 26.883674 10.459564 28.742191 0.259328 1.815296-2.550059 6.396758-8.601047 6.872193zM1953.51815-31.573188999999957c-1.728854-15.386797-1.469526-18.412291 6.310315-20.919129 7.390849-2.290731 17.547864-1.383083 28.655749-1.858518 6.050988 8.946817 13.787608 20.443694 9.33581 31.249029-2.333952 5.316225-44.388317 14.997805-44.301874-8.471382zM2031.100456 12.988013000000024c12.663853 40.282289 54.934324 68.851595 102.045585 69.067702 33.150768 0.172885 53.378356-14.479149 54.674996-38.942428l-50.136755-21.092014c-1.858518 12.361303-8.471383 17.374979-18.196185 17.331758-12.707074-0.086443-25.932804-8.860375-31.335472-26.062469-5.48911-17.461422 2.24751-26.148911 14.954584-26.062468 9.724802 0.043221 19.536046 5.186561 29.174405 17.591085l37.040689-20.616579c-16.683437-24.549721-46.246834-39.461084-79.354381-39.677191-47.111261-0.259328-71.57454 27.920986-58.867466 68.462604zM2031.100456 12.988013000000024c12.663853 40.282289 54.934324 68.851595 102.045585 69.067702 33.150768 0.172885 53.378356-14.479149 54.674996-38.942428l-50.136755-21.092014c-1.858518 12.361303-8.471383 17.374979-18.196185 17.331758-12.707074-0.086443-25.932804-8.860375-31.335472-26.062469-5.48911-17.461422 2.24751-26.148911 14.954584-26.062468 9.724802 0.043221 19.536046 5.186561 29.174405 17.591085l37.040689-20.616579c-16.683437-24.549721-46.246834-39.461084-79.354381-39.677191-47.111261-0.259328-71.57454 27.920986-58.867466 68.462604zM2328.679385 13.679554000000053l-20.357251-64.788789-49.401992-0.259328 20.789465 66.215093c5.186561 16.510552 2.117846 22.777646-6.180652 22.734426-8.730711-0.043221-17.591086-6.612865-23.123417-24.333615l-20.357252-64.78879-49.401992-0.259328 41.708594 132.732737 47.024818 0.259328-3.88992-12.361303c12.101975 9.98413 25.414148 14.997805 38.553435 14.997805 40.930609-0.043221 32.804997-44.734087 24.636164-70.148236z"  horiz-adv-x="2500" />
      
      <glyph glyph-name="fire" unicode="&#59029;" d="M498.688 162.304m-285.184 0a285.184 285.184 0 1 1 570.368 0 285.184 285.184 0 1 1-570.368 0ZM135.168 269.312c6.656 28.16 24.064 72.704 51.2 134.144s42.496 111.104 45.056 149.504c26.624-49.152 41.984-98.816 46.08-148.48 100.864 125.44 153.6 271.872 157.696 438.272 6.656-4.096 15.36-9.728 25.6-17.408s30.208-23.04 59.392-46.08c29.184-23.04 54.784-48.64 75.776-75.776 20.992-27.136 41.984-59.904 62.464-98.304s32.256-78.336 34.816-120.832c10.24 24.576 16.896 51.2 19.456 79.872s-0.512 56.32-9.216 82.944c10.24-8.192 24.064-22.016 41.984-40.96 17.92-18.944 36.864-44.544 57.344-75.776 20.48-31.232 39.424-65.024 57.344-101.376 17.92-36.352 28.16-76.288 31.744-120.832 3.584-44.544 0.512-87.552-9.216-130.048-9.728-42.496-34.304-85.504-73.728-130.048s-91.648-85.504-155.648-122.88c43.52 87.552 52.224 182.272 25.6 284.672-26.624 102.4-79.36 180.736-157.696 234.496 6.656-29.184 3.072-77.312-11.264-144.384s-36.352-118.272-66.56-153.6c4.608 43.008 6.144 77.824 4.096 104.448-2.048 26.624-6.144 46.592-12.288 59.392l-10.24 18.432c-8.192-47.616-28.672-95.744-61.44-144.384-17.92-25.088-31.232-48.64-39.936-69.632-8.704-20.992-11.776-48.64-9.216-81.92 2.56-33.28 12.8-69.12 30.72-107.52-92.16 51.712-154.112 104.448-185.344 157.696-31.232 53.248-39.424 115.2-24.576 185.344v1.024z"  horiz-adv-x="1024" />
      
      <glyph glyph-name="peixunjigou" unicode="&#59240;" d="M644.608 70.976V719.904a46.08 46.08 0 0 1-47.328 42.4H218.976a35.2 35.2 0 0 1-35.456-18.24 45.344 45.344 0 0 1-11.776-36.352v-642.784h-29.504a16 16 0 0 1-17.792-18.24 18.432 18.432 0 0 1 5.888-24.256c5.888-6.048 11.776-6.048 23.68-6.048h709.152a16 16 0 0 1 17.792 18.24 23.2 23.2 0 0 1-17.792 30.304h-23.616V471.168a31.712 31.712 0 0 1-35.456 36.352h-106.432v-430.496l-5.888-6.048zM313.632 459.104v48.544h189.056v-48.544z m0-260.8v48.544h189.056v-48.544z m0 436.672h189.056v-48.544h-177.28c-5.888 0-5.888 0-5.888 6.048a121.952 121.952 0 0 0-5.888 42.496z m0-260.8h189.056v-48.544H313.632z"  horiz-adv-x="1024" />
      
      <glyph glyph-name="hezuomanyidu" unicode="&#59241;" d="M510.520889-39.950222a425.429333 425.429333 0 1 0 425.429333 425.429333 425.415111 425.415111 0 0 0-425.429333-425.429333z m0 779.932444a354.503111 354.503111 0 1 1 354.503111-354.503111 354.517333 354.517333 0 0 1-354.503111 354.517333zM333.240889 385.479111a35.441778 35.441778 0 0 0-35.441778 35.441778v70.912a35.456 35.456 0 0 0 70.912 0v-70.912a35.456 35.456 0 0 0-35.470222-35.441778z m354.545778 0a35.456 35.456 0 0 0-35.484445 35.441778v70.912a35.456 35.456 0 0 0 70.912 0v-70.912a35.441778 35.441778 0 0 0-35.441778-35.441778zM510.506667 137.329778a206.222222 206.222222 0 0 0-171.235556 86.656 35.470222 35.470222 0 1 0 56.661333 42.666666 33.564444 33.564444 0 0 0 2.176-3.271111 135.281778 135.281778 0 0 1 112.355556-55.139555 135.281778 135.281778 0 0 1 112.355556 55.139555 35.470222 35.470222 0 0 0 58.979555-39.395555 206.222222 206.222222 0 0 0-171.292444-86.656z"  horiz-adv-x="1024" />
      
      <glyph glyph-name="gaozhongxuexiao" unicode="&#59242;" d="M511.341714 778.349714L742.820571 546.925714v-93.147428h154.258286v-385.700572h38.601143v-77.165714H87.04v77.165714h38.601143V453.76h154.258286V546.925714z m231.478857-710.272h77.129143V376.630857h-77.129143zM279.899429 376.630857h-77.129143v-308.553143h77.129143z m77.165714 138.313143v-446.866286h115.693714V338.066286h77.165714v-269.988572h115.693715V514.962286L511.323429 669.257143z"  horiz-adv-x="1024" />
      
      <glyph glyph-name="gerenguihuashi" unicode="&#59243;" d="M889.819429 473.252571a30.537143 30.537143 0 0 1 14.811428 26.477715 30.427429 30.427429 0 0 1-15.506286 26.166857l-354.980571 168.228571a30.774857 30.774857 0 0 1-29.952 0L149.12 527.579429a30.390857 30.390857 0 0 1-15.542857-26.038858 30.482286 30.482286 0 0 1 14.628571-26.605714l93.805715-56.886857v-281.910857c0-81.481143 174.134857-103.186286 277.028571-103.186286s277.028571 21.796571 277.028571 103.186286V416.877714z m-370.797715 159.396572l294.582857-134.125714L519.314286 338.998857l-294.710857 161.060572z m216.100572-494.336c-9.984-13.787429-82.413714-44.251429-216.100572-44.251429s-206.043429 30.464-216.027428 44.251429V381.202286l200.301714-103.917715a30.793143 30.793143 0 0 1 15.853714-4.461714 30.464 30.464 0 0 1 15.725715 4.370286l200.265142 102.985143v-241.846857zM868.754286 427.026286a30.464 30.464 0 0 1-30.464-30.464v-247.515429a30.464 30.464 0 0 1 30.464-30.464 30.500571 30.500571 0 0 1 30.464 30.464V396.416a30.464 30.464 0 0 1-30.464 30.610286z"  horiz-adv-x="1024" />
      
      <glyph glyph-name="gerencongyezhe" unicode="&#59244;" d="M836.768 373.728l-66.624-40.032v41.216a71.104 71.104 0 0 1-70.976 70.944H177.28a71.168 71.168 0 0 1-70.976-70.944v-307.2a71.168 71.168 0 0 1 70.976-70.944h521.888a71.136 71.136 0 0 1 70.944 70.976v41.024l66.656-40.032a52.8 52.8 0 0 1 80 45.28v214.4a52.864 52.864 0 0 1-80 45.312z m-286.4-181.664l-118.4-68.352a33.76 33.76 0 0 0-50.656 29.184v136.736a33.76 33.76 0 0 0 50.656 29.248l118.4-68.352a33.728 33.728 0 0 0 0-58.432z m-126.4 426.688a151.776 151.776 0 1 1 303.552 0 151.776 151.776 0 0 1-303.552 0zM226.368 498.24a93.888 93.888 0 1 1 0 132.768 93.92 93.92 0 0 1 0.096-132.736z"  horiz-adv-x="1024" />
      
      <glyph glyph-name="zhengque" unicode="&#59245;" d="M519.850667 822.229333a429.269333 429.269333 0 0 1-424.618667-433.834666 429.269333 429.269333 0 0 1 424.618667-433.877334 429.269333 429.269333 0 0 1 424.448 433.877334 429.269333 429.269333 0 0 1-424.448 433.834666z m264.533333-327.381333l-297.045333-292.778667a48.597333 48.597333 0 0 0-13.184-9.514666 46.933333 46.933333 0 0 0-61.482667 5.205333l-127.573333 130.389333a49.493333 49.493333 0 0 0 0 69.034667 46.933333 46.933333 0 0 0 67.541333 0l95.786667-97.877333 268.458666 264.533333a46.933333 46.933333 0 0 0 67.541334 0 49.493333 49.493333 0 0 0 0-69.034667z"  horiz-adv-x="1024" />
      
      <glyph glyph-name="jiaoyujigou2" unicode="&#59233;" d="M869.979429 53.028571h-35.035429V471.296a61.933714 61.933714 0 0 1-61.915429 61.915429H610.742857V704A64 64 0 0 1 546.742857 768H247.972571a64 64 0 0 1-64-64v-650.971429H154.459429a26.514286 26.514286 0 0 1 0-53.028571h715.081142A26.587429 26.587429 0 0 1 896 26.459429a26.24 26.24 0 0 1-26.020571 26.569142z m-312.484572 0H237.275429V693.284571a21.156571 21.156571 0 0 0 21.376 21.339429h277.449142a21.156571 21.156571 0 0 0 21.376-21.339429z m224.128 0H610.742857V479.835429h146.011429a24.795429 24.795429 0 0 0 24.795428-24.740572V53.028571zM727.003429 358.436571h-79.798858a23.113143 23.113143 0 1 1 0-46.208h79.780572a23.296 23.296 0 0 1 23.131428 23.076572 23.058286 23.058286 0 0 1-23.113142 23.131428z m2.084571-121.819428h-84.041143a20.809143 20.809143 0 0 1-20.955428-21.046857v-4.224a20.790857 20.790857 0 0 1 20.955428-20.937143h84.114286a20.790857 20.790857 0 0 1 21.028571 20.992v4.169143a21.101714 21.101714 0 0 1-21.028571 21.046857z m-237.312 92.416h-63.012571a20.790857 20.790857 0 0 1-20.992-20.992v-4.224a20.754286 20.754286 0 0 1 20.992-20.992h63.012571a20.754286 20.754286 0 0 1 20.992 20.992v4.224a20.790857 20.790857 0 0 1-20.992 20.992z m-136.539429 0h-63.012571a20.809143 20.809143 0 0 1-20.992-20.992v-4.224a20.790857 20.790857 0 0 1 20.992-20.992h63.012571a20.754286 20.754286 0 0 1 21.010286 20.992v4.224a21.065143 21.065143 0 0 1-21.010286 20.992z m137.764572 128.128h-62.957714a20.827429 20.827429 0 0 1-21.028572-21.028572v-4.187428a20.790857 20.790857 0 0 1 21.028572-20.992h62.976a20.790857 20.790857 0 0 1 21.028571 20.992v4.187428a20.827429 20.827429 0 0 1-21.028571 21.028572z m-136.484572 0h-63.012571a20.790857 20.790857 0 0 1-20.992-21.028572v-4.187428a20.754286 20.754286 0 0 1 20.992-20.992h63.012571a20.790857 20.790857 0 0 1 20.992 20.992v4.187428a21.065143 21.065143 0 0 1-20.992 21.028572z m136.484572 128h-62.957714a20.790857 20.790857 0 0 1-21.028572-20.992v-4.187429a20.827429 20.827429 0 0 1 21.028572-21.028571h62.976a20.827429 20.827429 0 0 1 21.028571 21.028571v4.187429a20.790857 20.790857 0 0 1-21.028571 21.083428z m-136.484572 0h-63.012571a20.754286 20.754286 0 0 1-20.992-20.992v-4.187429a20.790857 20.790857 0 0 1 20.992-21.028571h63.012571a20.827429 20.827429 0 0 1 20.992 21.028571v4.187429a21.028571 21.028571 0 0 1-20.992 21.083428z"  horiz-adv-x="1024" />
      
      <glyph glyph-name="peixunjigou2" unicode="&#59234;" d="M317.659429 339.876571a26.587429 26.587429 0 0 1-26.24-26.934857v-108.251428a26.276571 26.276571 0 1 1 52.534857 0v108.251428a26.898286 26.898286 0 0 1-26.294857 26.934857zM515.273143 177.755429a26.294857 26.294857 0 0 1 26.24 26.934857v108.251428a26.898286 26.898286 0 0 1-26.24 26.934857 26.569143 26.569143 0 0 1-26.24-26.934857v-108.251428a26.587429 26.587429 0 0 1 26.24-26.934857zM712.832 177.755429a26.294857 26.294857 0 0 1 26.24 26.934857v108.251428a26.898286 26.898286 0 0 1-26.24 26.934857 26.569143 26.569143 0 0 1-26.24-26.934857v-108.251428a26.587429 26.587429 0 0 1 26.24-26.934857zM875.849143 47.762286h-37.76V473.124571h37.284571a27.428571 27.428571 0 0 1 26.733715 27.026286 26.587429 26.587429 0 0 1-26.258286 26.88h-51.328a319.232 319.232 0 0 1-618.532572 0H155.117714a26.971429 26.971429 0 0 1 0-53.906286h37.284572v-425.362285H155.117714a26.898286 26.898286 0 0 1-26.24-26.934857 26.587429 26.587429 0 0 1 26.24-26.934858h720.274286a26.989714 26.989714 0 0 1 26.715429 26.934858 26.587429 26.587429 0 0 1-26.258286 26.934857z m-90.258286 0h-145.060571V473.124571h145.060571z m-197.485714 425.362285v-425.362285H442.514286V473.124571z m-72.777143 239.652572a267.757714 267.757714 0 0 0 253.915429-185.746286h-508.342858A269.056 269.056 0 0 0 515.273143 712.777143zM244.955429 473.124571h145.060571v-425.362285h-145.060571z"  horiz-adv-x="1024" />
      
      <glyph glyph-name="dianhua" unicode="&#59232;" d="M128.176552 606.561103A132.06069 132.06069 0 0 0 141.241379 670.543448a56.920276 56.920276 0 0 0 12.005518 16.31338c13.064828 14.124138 26.023724 26.977103 39.088551 40.112551a142.30069 142.30069 0 0 0 52.18869 34.78069 87.463724 87.463724 0 0 0 49.999448 4.484414 115.394207 115.394207 0 0 0 56.496552-30.366897 319.629241 319.629241 0 0 0 59.780414-77.047172 131.03669 131.03669 0 0 0 17.372689-48.798897 79.307034 79.307034 0 0 0-17.372689-67.407448 469.345103 469.345103 0 0 0-38.029242-41.207172 11.934897 11.934897 0 0 1-3.248551-15.183449 138.063448 138.063448 0 0 1 24.964413-44.491034c14.124138-18.432 30.437517-36.864 46.715587-55.296 15.218759-17.37269 32.591448-33.615448 48.904827-51.023448 11.934897-11.934897 24.964414-23.834483 38.029242-34.74538a340.921379 340.921379 0 0 1 76.058482-53.177379 94.984828 94.984828 0 0 1 16.31338-5.473104 11.617103 11.617103 0 0 1 6.532413 2.189242c7.591724 6.497103 14.124138 14.124138 21.715863 21.715862a187.462621 187.462621 0 0 0 33.650758 25.988414 86.686897 86.686897 0 0 0 52.18869 8.721655 139.405241 139.405241 0 0 0 61.969655-23.905104 487.282759 487.282759 0 0 0 47.774897-34.745379 152.152276 152.152276 0 0 0 42.372413-52.082759 80.542897 80.542897 0 0 0 8.651035-47.739586 108.861793 108.861793 0 0 0-23.905104-57.520551q-19.597241-22.775172-42.372413-45.550345a150.033655 150.033655 0 0 0-31.496828-26.023724 112.993103 112.993103 0 0 0-36.016552-10.840276 212.603586 212.603586 0 0 0-26.059034-2.118621 439.26069 439.26069 0 0 0-53.248 6.497103 348.089379 348.089379 0 0 0-80.436966 26.023725 434.740966 434.740966 0 0 0-73.904551 37.95862c-18.46731 12.005517-38.064552 23.905103-56.496552 35.981242a690.423172 690.423172 0 0 0-44.561655 33.615448c-17.408 14.124138-33.721379 28.248276-49.999449 43.431724-17.408 15.183448-33.721379 31.461517-49.999448 47.704276-13.064828 13.064828-26.059034 28.248276-38.064552 42.372414a795.047724 795.047724 0 0 0-58.509241 77.011862 926.543448 926.543448 0 0 0-43.467035 70.620689 500.594759 500.594759 0 0 0-44.596965 101.976276c-5.402483 18.432-8.651034 36.89931-13.064828 56.496552a260.307862 260.307862 0 0 0-0.988689 26.765241z"  horiz-adv-x="1024" />
      
      <glyph glyph-name="jiaoyujigou" unicode="&#59235;" d="M897.44 56.64c-6.784 95.072-98.336 155.072-251.008 164.672a74.752 74.752 0 0 0-50.72 18.752v20.448c86.112 39.68 124.8 148.416 124.8 241.568 0 2.336 0.224 7.264 0.352 11.488 0 3.584 0.256 6.656 0.256 7.776v30.048l76.8 23.52v-62.464a44.8 44.8 0 0 1-29.12-41.792 44.8 44.8 0 0 1 44.8-44.8 44.8 44.8 0 0 1 44.8 44.8 44.8 44.8 0 0 1-29.056 41.792V596.8h-0.608a45.312 45.312 0 0 1 4.128 18.848 46.4 46.4 0 0 1-13.76 32.96 15.68 15.68 0 0 1-5.408 3.488c-99.968 38.912-263.072 103.104-274.976 109.728a54.688 54.688 0 0 1-58.304 0.416c-11.52-6.176-172.8-68.544-271.68-106.464a15.488 15.488 0 0 1-5.504-3.52 45.408 45.408 0 0 1-13.248-32.192 46.368 46.368 0 0 1 13.76-32.96 16.32 16.32 0 0 1 6.4-3.872l91.712-28.64v-27.872c0-1.632 0-5.888 0.256-10.592 0.16-5.344 0.352-11.296 0.352-14.048 0-93.12 38.688-201.856 124.8-241.536v-20.48a74.112 74.112 0 0 0-50.784-18.88c-152.672-9.6-244.16-69.632-251.008-164.704-2.048-28.8-1.504-44.032 7.168-53.344a20.32 20.32 0 0 1 15.04-6.592h727.36a20.48 20.48 0 0 1 15.104 6.592c8.64 9.344 9.152 24.64 7.104 53.344z"  horiz-adv-x="1024" />
      
      <glyph glyph-name="xuyueshuai" unicode="&#59236;" d="M485.304889 712.860444a357.077333 357.077333 0 1 1 356.977778-356.977777h-356.977778z m297.102222-412.103111a302.193778 302.193778 0 1 0-352.056889 352.113778v-352.113778zM540.16 767.815111v-357.12h357.12a356.977778 356.977778 0 0 1-357.12 357.12z m54.954667-59.904a302.933333 302.933333 0 0 0 242.261333-242.218667H595.114667z"  horiz-adv-x="1024" />
      
      <glyph glyph-name="hezuojigou" unicode="&#59237;" d="M506.88 25.955556L169.969778 362.865778c-89.827556 89.870222-92.615111 233.244444-5.504 320.384a226.247111 226.247111 0 0 0 312.248889 2.204444l8.092444-7.708444 22.016-22.101334 27.989333 27.989334a222.620444 222.620444 0 0 0 322.346667-307.086222l-7.409778-7.793778-342.869333-342.755556z m-31.431111 524.131555l50.190222-50.190222 55.466667 55.466667 0.896-0.938667 12.999111 12.999111 189.653333-189.568 27.989334 27.904a170.225778 170.225778 0 0 1 6.656 233.784889l-6.656 7.025778a170.254222 170.254222 0 0 1-233.742223 6.613333l-7.025777-6.613333-96.469334-96.512z m-273.934222 96.113778a173.838222 173.838222 0 0 1-1.422223-238.933333l6.983112-7.324445 299.804444-299.875555 74.24 74.282666-185.116444 185.130667 37.063111 37.105778 185.102222-185.258667 55.466667 55.466667-111.089778 111.175111 37.105778 36.977778 111.047111-111.089778 36.892444 36.892444-153.429333 153.571556-68.565334-68.565334-124.259555 124.344889 68.522667 68.522667-22.101334 22.101333a174.222222 174.222222 0 0 1-246.200889 5.475556z"  horiz-adv-x="1024" />
      
      <glyph glyph-name="zhuanzhiguihuashi" unicode="&#59238;" d="M644.256 377.376c53.152-21.312 107.232-40.96 159.392-64.448a114.976 114.976 0 0 0 58.176-68.928l0.864-2.304 5.248-17.536a428.8 428.8 0 0 0 21.92-134.208 591.552 591.552 0 0 0-368-135.744h-13.376a591.808 591.808 0 0 0-375.2 134.112c0 19.968 0.48 36.32 1.184 43.968a498.048 498.048 0 0 0 14.336 75.328 134.912 134.912 0 0 0 83.712 97.504c51.36 20.768 102.4 42.176 156.384 64.352l70.4-235.328c1.312 0.224 2.816 0.352 4.224 0.512 4.48 39.872 9.92 79.648 12.8 119.68 1.184 15.584 5.824 21.056 22.592 20.672 33.824-0.768 33.152 0 36.32-30.976a867.936 867.936 0 0 1 17.312-110.88q11.104 36.128 21.92 72.416c15.744 53.6 31.808 107.136 46.848 160.896 3.84 13.504 10.528 16 23.072 10.944z m6.4-186.784c-17.568 0.16-20.896-9.792-20.928-23.424s3.2-23.744 20.544-23.744h102.4c16.608 0 19.2 9.376 19.04 22.4s0 24.64-18.656 24.8h-51.2v0.16c-17.088-0.224-34.048-0.32-51.168-0.192z m-172.8 187.968a248.608 248.608 0 0 0 48.736 0c3.392-0.288 8.608-9.6 8.48-14.72-0.352-16.16-2.88-32.32-5.056-53.344a151.904 151.904 0 0 0-51.2 1.12c-24.384 9.376-11.2 35.2-11.2 60.608-0.736 1.92 5.376 5.792 10.336 6.336zM423.968 782.784a181.248 181.248 0 0 0 183.296-4.64c43.296-25.152 66.784-84.416 51.2-173.12 20.864-10.592 24-29.12 10.08-66.112-4.608-12.16-7.872-28-26.08-18.208-15.584-26.56-29.12-53.12-45.792-77.44a112.256 112.256 0 0 0-170.176-1.664c-12.128 16.48-21.824 34.688-32.896 51.872-6.816 10.592-6.176 27.424-26.688 26.816-3.744-0.16-9.6 10.208-11.52 16.64a294.72 294.72 0 0 0-8.416 38.816c-2.24 13.408-1.824 25.92 16 26.72-0.416 4.864-0.864 9.6-1.248 14.56l-0.768 9.6c-4.608 61.376-2.848 120.832 62.88 156z"  horiz-adv-x="1024" />
      
      <glyph glyph-name="pingjunyejitisheng" unicode="&#59239;" d="M776.547556 107.648l33.806222-85.987556-59.434667-22.912-42.794667 108.899556H313.201778l-42.837334-108.899556-59.306666 22.926223 33.706666 85.973333H131.982222v63.274667h759.196445v-63.260445z m17.948444 103.68H225.123556a63.317333 63.317333 0 0 0-63.260445 63.331556v432.355555a63.317333 63.317333 0 0 0 63.260445 63.260445h569.372444a63.317333 63.317333 0 0 0 63.246222-63.331556v-432.284444a63.317333 63.317333 0 0 0-63.246222-63.331556z m0 495.616H225.123556v-432.284444h569.415111z m-317.155556-377.870222l-51.953777 6.855111-44.672 89.400889-67.527111-84.451556-49.365334 39.523556 98.389334 123.107555 52.992-5.688889 45.738666-91.719111 218.538667 246.357334 55.296-21.020445v-154.737778h-63.274667v71.409778z"  horiz-adv-x="1024" />
      
    </font>
</defs>
</svg>
